Ergebnis 1 bis 1 von 1

Thema: Fate/Stay Night 2006 [Laufend][Jap-Dub][Ger-Sub][720p-8Bit/10Bit][BluRay] - Hanami

Dieser Thread wurde noch nicht bewertet. Bewerte ihn doch, wenn er dir gefällt!
  1. #1
    Kami-sama Avatar von galudo
    Registriert seit
    Mar 2015
    Beiträge
    1.370
    Punkte
    25.957
    Errungenschaften:
    TomodachisTagger ProfiHyperaktivSenpaiGang Leader

    Fate/Stay Night 2006 [Laufend][Jap-Dub][Ger-Sub][720p-8Bit/10Bit][BluRay] - Hanami

    Fate/Stay Night
    Fate Project
    F/S N
    Fate - Stay Night



    Kurzbeschreibung
    Es könnte ein normaler Tag für den Schüler Shirou Emiya werden. Eine Schulfreundin hat ihm Frühstück gemacht, er ist zur Schule gegangen und lebt sein kleines Leben. Doch die Zeit für einen besonderen Wettkampf ist angebrochen. Die Arena ist Shirou's Heimatstadt und Teilnehmer agieren im Verborgenen. Magisch begabte beschwören sich einen Diener um diesen gegen andere kämpfen zu lassen. Gewinnen kann man den Heiligen Gral, dem nachgesagt wird, dass er dem Gewinner einen Wunsch erfüllt.
    Format: MP4 bei 8Bit | MKV bei 10Bit
    Sprache: Japanisch
    Untertitel: Deutsch
    Genre: Action, Drama, Fantasy, Magie, Mystery, Super-Power, Violence
    Größe bei 8Bit: ~ 330 MB pro Folge | Gesamtgröße: 0,33 GB
    Größe bei 10Bit: ~ 340 MB pro Folge | Gesamtgröße: 0,34 GB
    Dauer: ~ 24 Minuten
    Jahr: 2006
    Video: 720p
    Source: BluRay
    Subgroup / Releasegroup: Hanami-Subs

    Hoster: Share-Online | Uploaded
    Passwort: siehe unten
    Onlinestatus: 8bit|10bit


    Datei-Info
    MediaInfo
    8Bit
    Code:
    General
    Complete name                  : [Hanami]_Fate_Stay_Night_Folge_01_(BD_720p_8bit_AAC)_[A02DE58F].mp4
    Format                         : MPEG-4
    Format profile                 : Base Media
    Codec ID                       : isom
    File size                      : 333 MiB
    Duration                       : 24mn 13s
    Overall bit rate mode          : Variable
    Overall bit rate               : 1 921 Kbps
    Encoded date                   : UTC 2016-04-30 00:42:13
    Tagged date                    : UTC 2016-04-30 00:42:13
    Writing application            : Yamb 2.1.0.0 [http://yamb.unite-video.com]
    
    Video
    ID                             : 1
    Format                         : AVC
    Format/Info                    : Advanced Video Codec
    Format profile                 : [email protected]
    Format settings, CABAC         : Yes
    Format settings, ReFrames      : 7 frames
    Codec ID                       : avc1
    Codec ID/Info                  : Advanced Video Coding
    Duration                       : 24mn 12s
    Bit rate                       : 1 610 Kbps
    Maximum bit rate               : 7 279 Kbps
    Width                          : 1 280 pixels
    Height                         : 720 pixels
    Display aspect ratio           : 16:9
    Frame rate mode                : Variable
    Frame rate                     : 23.976 fps
    Minimum frame rate             : 23.564 fps
    Maximum frame rate             : 24.390 fps
    Color space                    : YUV
    Chroma subsampling             : 4:2:0
    Bit depth                      : 8 bits
    Scan type                      : Progressive
    Bits/(Pixel*Frame)             : 0.073
    Stream size                    : 279 MiB (84%)
    Title                          : Fate ~Stay Night~ - 01 ?Der erste Tag? / Fate ~Stay Night~ - 01 「Der erste Tag」
    Writing library                : x264 core 148 r2692kMod 64f4e24
    Encoding settings              : cabac=1 / ref=7 / deblock=1:0:0 / analyse=0x3:0x113 / me=umh / subme=9 / psy=1 / fade_compensate=0.00 / psy_rd=0.50:0.00 / mixed_ref=1 / me_range=16 / chroma_me=1 / trellis=1 / 8x8dct=1 / cqm=0 / deadzone=21,11 / fast_pskip=1 / chroma_qp_offset=-2 / threads=12 / lookahead_threads=1 / sliced_threads=0 / nr=0 / decimate=0 / interlaced=0 / bluray_compat=0 / constrained_intra=0 / fgo=0 / bframes=7 / b_pyramid=2 / b_adapt=1 / b_bias=0 / direct=1 / weightb=1 / open_gop=0 / weightp=2 / keyint=250 / keyint_min=23 / scenecut=40 / intra_refresh=0 / rc_lookahead=144 / rc=crf / mbtree=1 / crf=18.0000 / qcomp=0.60 / qpmin=0 / qpmax=69 / qpstep=4 / ip_ratio=1.40 / aq=3:0.60
    Tagged date                    : UTC 2016-04-30 00:42:17
    
    Audio
    ID                             : 2
    Format                         : AAC
    Format/Info                    : Advanced Audio Codec
    Format profile                 : LC
    Codec ID                       : 40
    Duration                       : 24mn 13s
    Bit rate mode                  : Variable
    Bit rate                       : 306 Kbps
    Maximum bit rate               : 397 Kbps
    Channel(s)                     : 2 channels
    Channel positions              : Front: L R
    Sampling rate                  : 48.0 KHz
    Compression mode               : Lossy
    Stream size                    : 52.9 MiB (16%)
    Title                          : AAC 320kbps / AAC 320kbps
    Tagged date                    : UTC 2016-04-30 00:42:17
    
    Menu
    00:00:00.000                   : Prolog
    00:02:15.468                   : Opening
    00:03:45.692                   : Der Tag an dem alles begann (Teil I)
    00:10:59.791                   : Der Tag an dem alles begann (Teil II)
    00:22:10.500                   : Ending
    00:23:41.284                   : Nächstes mal
    10Bit
    Code:
    General
    Unique ID                      : 197656856867891847526713966819260257073 (0x94B3537082D8E4C08B71A162A9445331)
    Complete name                  : [Hanami]_Fate_Stay_Night_Folge_01_(BD_720p_10bit_Vorbis)_[00F8BE5A].mkv
    Format                         : Matroska
    Format version                 : Version 4 / Version 2
    File size                      : 338 MiB
    Duration                       : 48mn 1s
    Overall bit rate mode          : Variable
    Overall bit rate               : 983 Kbps
    Movie name                     : [Hanami-Subs] Fate Stay Night Folge 01 – Der Tag, an dem alles begann
    Encoded date                   : UTC 2016-04-28 17:37:08
    Writing application            : mkvmerge v7.0.0 ('Where We Going') 32bit built on Jun  9 2014 15:08:34
    Writing library                : libebml v1.3.0 + libmatroska v1.4.1
    Attachements                   : 00563.ttf / Aver.ttf / Imperator Bold.ttf / Imperator.ttf / Shancalluna_regular.ttf / Typography Times Bold.ttf
    _STATISTICS_WRITING_APP        : mkvmerge v7.0.0 ('Where We Going') 32bit built on Jun  9 2014 15:08:34
    _STATISTICS_WRITING_DATE_UTC   : 2016-04-28 17:37:08
    _STATISTICS_TAGS               : BPS DURATION NUMBER_OF_FRAMES NUMBER_OF_BYTES
    DURATION                       : 00:47:20.110000000
    NUMBER_OF_FRAMES               : 1143
    NUMBER_OF_BYTES                : 158804
    
    Video
    ID                             : 1
    Format                         : AVC
    Format/Info                    : Advanced Video Codec
    Format profile                 : High 4:4:4 [email protected]
    Format settings, CABAC         : Yes
    Format settings, ReFrames      : 7 frames
    Codec ID                       : V_MPEG4/ISO/AVC
    Duration                       : 48mn 1s
    Bit rate                       : 464 Kbps
    Width                          : 1 280 pixels
    Height                         : 720 pixels
    Display aspect ratio           : 16:9
    Frame rate mode                : Constant
    Frame rate                     : 23.976 fps
    Color space                    : YUV
    Chroma subsampling             : 4:4:4
    Bit depth                      : 10 bits
    Scan type                      : Progressive
    Bits/(Pixel*Frame)             : 0.021
    Stream size                    : 159 MiB (47%)
    Title                          : 720p – 10bit
    Writing library                : x264 core 148 r2692kMod 64f4e24
    Encoding settings              : cabac=1 / ref=7 / deblock=1:0:0 / analyse=0x3:0x113 / me=umh / subme=9 / psy=1 / fade_compensate=0.17 / psy_rd=0.50:0.00 / mixed_ref=1 / me_range=16 / chroma_me=1 / trellis=2 / 8x8dct=1 / cqm=0 / deadzone=21,11 / fast_pskip=1 / chroma_qp_offset=4 / threads=12 / lookahead_threads=1 / sliced_threads=0 / nr=0 / decimate=0 / interlaced=0 / bluray_compat=0 / constrained_intra=0 / fgo=0 / bframes=7 / b_pyramid=2 / b_adapt=1 / b_bias=0 / direct=1 / weightb=1 / open_gop=0 / weightp=2 / keyint=250 / keyint_min=23 / scenecut=40 / intra_refresh=0 / rc_lookahead=144 / rc=crf / mbtree=1 / crf=17.0000 / qcomp=0.60 / qpmin=0 / qpmax=81 / qpstep=4 / ip_ratio=1.40 / aq=3:0.60
    Default                        : Yes
    Forced                         : No
    _STATISTICS_WRITING_APP        : mkvmerge v7.0.0 ('Where We Going') 32bit built on Jun  9 2014 15:08:34
    _STATISTICS_WRITING_DATE_UTC   : 2016-04-28 17:37:08
    _STATISTICS_TAGS               : BPS DURATION NUMBER_OF_FRAMES NUMBER_OF_BYTES
    DURATION                       : 00:24:12.994000000
    NUMBER_OF_FRAMES               : 34837
    NUMBER_OF_BYTES                : 269687614
    
    Audio
    ID                             : 2
    Format                         : Vorbis
    Format settings, Floor         : 1
    Codec ID                       : A_VORBIS
    Duration                       : 48mn 1s
    Bit rate mode                  : Variable
    Bit rate                       : 500 Kbps
    Channel(s)                     : 2 channels
    Sampling rate                  : 48.0 KHz
    Compression mode               : Lossy
    Stream size                    : 172 MiB (51%)
    Title                          : Fate ~Stay Night~ - 01 「The First Day」
    Writing library                : aoTuV 20110424 (UTC 2011-04-24)
    Language                       : Japanese
    Default                        : Yes
    Forced                         : No
    
    Text
    ID                             : 3
    Format                         : ASS
    Codec ID                       : S_TEXT/ASS
    Codec ID/Info                  : Advanced Sub Station Alpha
    Compression mode               : Lossless
    Title                          : [Hanami] Fate Stay Night Folge 01
    Language                       : German
    Default                        : Yes
    Forced                         : No
    
    Menu
    00:00:00.000                   : :Prolog
    00:02:15.468                   : :Opening
    00:03:45.692                   : :Teil 1
    00:10:59.791                   : :Teil 2
    00:22:10.500                   : :Ending
    00:23:41.284                   : :Preview


    Folgen 01 / 24 online
    8Bit und 10Bit
    Folgen einzeln ladbar


    || Download & Passwort ||


    Geschützter Bereich - Bedanke dich beim Poster, um den Bereich sehen zu können
    Hier erfährst Du wie Du Dich bedanken kannst oder werde jetzt Premium Mitglied ab einer Spende von 5€ und erhalte sofortigen Zugriff auf den Downloadbereich!
    Geändert von galudo (12. October 2016 um 18:27 Uhr)
    SUPPORT UND REUP ANFRAGEN NUR >> [Links sind nur für registrierte und aktivierte Nutzer sichtbar. Klicke hier um dich zu registrieren.] <<
    Bitte IMMER den Thread-Link mitschicken.

  2. 10 Benutzer sagen Danke:

    Bloody Shion (8. May 2016),Filbo11 (1. May 2016),iclazzzix (21. August 2016),leonard_roy (20. June 2016),MimikoSaiko (15. May 2016),Nanis123 (2. May 2016),Psych0 (16. September 2016),Rin58 (8. May 2016),rinnegan93 (20. November 2016),YamiXGhost (2. May 2016)

Stichworte

Lesezeichen

Berechtigungen

  • Neue Themen erstellen: Nein
  • Themen beantworten: Nein
  • Anhänge hochladen: Nein
  • Beiträge bearbeiten: Nein
  •  

1 2 3 4 5 6 7 8 9 10 11 12 13 14 15 16 17 18 19 20 21 22 23 24 25 26 27 28 29 30 31 32 33 34 35 36 37 38 39 40 41 42 43 44 45 46 47 48 49 50 51 52 53 54 55 56 57 58 59 60 61 62 63 64 65 66 67 68 69 70 71 72 73 74 75 76 77 78 79 80 81 82 83 84 85 86 87 88 89 90 91 92 93 94 95 96 97 98 99 100 101 102 103 104 105 106 107 108 109 110 111 112 113 114 115 116 117 118 119 120 121 122 123 124 125 126 127 128 129 130 131 132 133 134 135 136 137 138 139 140 141 142 143 144 145 146 147 148 149 150 151 152 153 154 155 156 157 158