Ergebnis 1 bis 2 von 2

Thema: Flying Witch [Jap-Dub][Ger-Sub][720p/1080p-8Bit/10Bit][HDTV] - Chinu

Dieser Thread wurde noch nicht bewertet. Bewerte ihn doch, wenn er dir gefällt!
  1. #1
    Kami-sama Avatar von galudo
    Registriert seit
    Mar 2015
    Beiträge
    1.371
    Punkte
    26.002
    Errungenschaften:
    TomodachisTagger ProfiHyperaktivSenpaiGang Leader

    Flying Witch [Jap-Dub][Ger-Sub][720p/1080p-8Bit/10Bit][HDTV] - Chinu

    Flying Witch
    ふらいんぐうぃっち



    Kurzbeschreibung
    Kowata Makoto, 15 Jahre alt, kehrt nach langer Abwesenheit mit ihrem Kater zu ihren Verwandten zurück. Aufgrund ihres schlechten Orientierungssinns geht ihre Cousine Chinatsu mit ihr in der Stadt einkaufen. Dabei entdeckt sie die magischen Fähigkeiten ihrer fernen Verwandten, wie z. B. das Fliegen auf einem Besen ...
    Format: MP4 bei 8Bit | MKV bei 10Bit
    Sprache: Japanisch
    Untertitel: Deutsch
    Genre: Alltagsleben, Comedy, Magie, Shounen
    Größe bei 720p-8Bit: ~ 300 MB pro Folge | Gesamtgröße: 2,16 GB
    Größe bei 1080p-8Bit: ~ 460 MB pro Folge | Gesamtgröße: 1,76 GB
    Größe bei 1080p-10Bit: ~ 490 MB pro Folge | Gesamtgröße: 3,76 GB
    Dauer: ~ 23 Minuten
    Jahr: 2016
    Video: 720p & 1080p
    Source: HDTV
    Subgroup / Releasegroup: Chinurarete Subs

    Hoster: Share-Online | Uploaded
    Passwort: siehe unten
    Onlinestatus: HD-8bit| FHD-8bit|FHD-10bit


    Datei-Info
    MediaInfo
    720p-8Bit
    Code:
    General
    Complete name                  : [Chinurarete_Subs]Flying_Witch_Folge_01_8BIT_720p.mp4
    Format                         : MPEG-4
    Format profile                 : Base Media
    Codec ID                       : isom
    File size                      : 306 MiB
    Duration                       : 23mn 0s
    Overall bit rate mode          : Variable
    Overall bit rate               : 1 859 Kbps
    Encoded date                   : UTC 2016-05-03 13:06:49
    Tagged date                    : UTC 2016-05-03 13:06:49
    Writing application            : Yamb 2.1.0.0 [http://yamb.unite-video.com]
    
    Video
    ID                             : 1
    Format                         : AVC
    Format/Info                    : Advanced Video Codec
    Format profile                 : [email protected]
    Format settings, CABAC         : Yes
    Format settings, ReFrames      : 9 frames
    Codec ID                       : avc1
    Codec ID/Info                  : Advanced Video Coding
    Duration                       : 23mn 0s
    Bit rate                       : 1 728 Kbps
    Maximum bit rate               : 19.2 Mbps
    Width                          : 1 280 pixels
    Height                         : 720 pixels
    Display aspect ratio           : 16:9
    Frame rate mode                : Constant
    Frame rate                     : 23.976 fps
    Color space                    : YUV
    Chroma subsampling             : 4:2:0
    Bit depth                      : 8 bits
    Scan type                      : Progressive
    Bits/(Pixel*Frame)             : 0.078
    Stream size                    : 284 MiB (93%)
    Writing library                : x264 core 122 r2184 5c85e0a
    Encoding settings              : cabac=1 / ref=9 / deblock=1:-2:-2 / analyse=0x1:0x131 / me=umh / subme=11 / psy=1 / psy_rd=0.85:0.25 / mixed_ref=1 / me_range=40 / chroma_me=1 / trellis=2 / 8x8dct=0 / cqm=0 / deadzone=21,11 / fast_pskip=0 / chroma_qp_offset=-4 / threads=6 / sliced_threads=0 / nr=0 / decimate=0 / interlaced=0 / bluray_compat=0 / constrained_intra=0 / bframes=16 / b_pyramid=2 / b_adapt=2 / b_bias=0 / direct=1 / weightb=1 / open_gop=0 / weightp=2 / keyint=250 / keyint_min=23 / scenecut=40 / intra_refresh=0 / rc_lookahead=40 / rc=crf / mbtree=1 / crf=16.0 / qcomp=0.70 / qpmin=0 / qpmax=69 / qpstep=4 / ip_ratio=1.40 / aq=2:1.25
    Encoded date                   : UTC 2016-05-02 13:04:40
    Tagged date                    : UTC 2016-05-03 13:06:51
    
    Audio
    ID                             : 2
    Format                         : AAC
    Format/Info                    : Advanced Audio Codec
    Format profile                 : LC
    Codec ID                       : 40
    Duration                       : 23mn 0s
    Bit rate mode                  : Variable
    Bit rate                       : 128 Kbps
    Maximum bit rate               : 135 Kbps
    Channel(s)                     : 2 channels
    Channel positions              : Front: L R
    Sampling rate                  : 44.1 KHz
    Compression mode               : Lossy
    Stream size                    : 21.1 MiB (7%)
    Encoded date                   : UTC 2016-05-03 13:06:50
    Tagged date                    : UTC 2016-05-03 13:06:51
    1080p-8Bit
    Code:
    General
    Complete name                  : [Chinurarete_Subs]Flying_Witch_Folge_01_8BIT_[2CB7DAB7].mp4
    Format                         : MPEG-4
    Format profile                 : Base Media
    Codec ID                       : isom
    File size                      : 458 MiB
    Duration                       : 23mn 13s
    Overall bit rate mode          : Variable
    Overall bit rate               : 2 756 Kbps
    Encoded date                   : UTC 2016-04-21 17:52:36
    Tagged date                    : UTC 2016-04-21 17:52:36
    
    Video
    ID                             : 1
    Format                         : AVC
    Format/Info                    : Advanced Video Codec
    Format profile                 : [email protected]
    Format settings, CABAC         : Yes
    Format settings, ReFrames      : 9 frames
    Codec ID                       : avc1
    Codec ID/Info                  : Advanced Video Coding
    Duration                       : 23mn 13s
    Bit rate                       : 2 625 Kbps
    Maximum bit rate               : 28.3 Mbps
    Width                          : 1 920 pixels
    Height                         : 1 080 pixels
    Display aspect ratio           : 16:9
    Frame rate mode                : Constant
    Frame rate                     : 23.976 fps
    Original frame rate            : 29.970 fps
    Color space                    : YUV
    Chroma subsampling             : 4:2:0
    Bit depth                      : 8 bits
    Scan type                      : Progressive
    Bits/(Pixel*Frame)             : 0.053
    Stream size                    : 436 MiB (95%)
    Writing library                : x264 core 142 r2409kMod d6b4e63
    Encoding settings              : cabac=1 / ref=9 / deblock=1:0:0 / analyse=0x1:0x131 / me=umh / subme=11 / psy=1 / fade_compensate=0.00 / psy_rd=1.00:0.00 / mixed_ref=1 / me_range=32 / chroma_me=1 / trellis=2 / 8x8dct=0 / cqm=0 / deadzone=21,11 / fast_pskip=0 / chroma_qp_offset=-2 / threads=6 / lookahead_threads=1 / sliced_threads=0 / nr=0 / decimate=0 / interlaced=0 / bluray_compat=0 / constrained_intra=0 / fgo=0 / bframes=16 / b_pyramid=2 / b_adapt=2 / b_bias=0 / direct=3 / weightb=1 / open_gop=0 / weightp=2 / keyint=250 / keyint_min=25 / scenecut=40 / intra_refresh=0 / rc_lookahead=250 / rc=crf / mbtree=1 / crf=16.0000 / qcomp=0.75 / qpmin=0 / qpmax=69 / qpstep=4 / ip_ratio=1.40 / aq=2:0.86
    Encoded date                   : UTC 2016-04-21 17:52:35
    Tagged date                    : UTC 2016-04-21 17:52:37
    Color range                    : Limited
    Color primaries                : BT.709
    Transfer characteristics       : BT.709
    Matrix coefficients            : BT.709
    
    Audio
    ID                             : 2
    Format                         : AAC
    Format/Info                    : Advanced Audio Codec
    Format profile                 : LC
    Codec ID                       : 40
    Duration                       : 23mn 13s
    Bit rate mode                  : Variable
    Bit rate                       : 128 Kbps
    Maximum bit rate               : 197 Kbps
    Channel(s)                     : 2 channels
    Channel positions              : Front: L R
    Sampling rate                  : 44.1 KHz
    Compression mode               : Lossy
    Stream size                    : 21.3 MiB (5%)
    Encoded date                   : UTC 2016-04-21 17:52:37
    Tagged date                    : UTC 2016-04-21 17:52:37
    
    Menu
    00:00:00.000                   : Einleitung
    00:01:10.980                   : Hauptteil
    00:21:37.910                   : Ending
    1080p-10Bit
    Code:
    General
    Unique ID                      : 204362848110226484908570174850058290043 (0x99BEDA55A9127F7AAF67D31BC4C6037B)
    Complete name                  : [Chinurarete_Subs]Flying_Witch_Folge_01_10BIT_[E9E15F82].mkv
    Format                         : Matroska
    Format version                 : Version 4 / Version 2
    File size                      : 487 MiB
    Duration                       : 23mn 0s
    Overall bit rate               : 2 962 Kbps
    Encoded date                   : UTC 2016-04-22 10:13:44
    Writing application            : mkvmerge v8.5.2 ('Crosses') 64bit
    Writing library                : libebml v1.3.3 + libmatroska v1.4.4
    Attachements                   : Beacn.ttf / Cabin-Bold.otf / Cabin-BoldItalic.otf / Cabin-Italic.ttf / Cabin-Medium.ttf / Cabin-MediumItalic.ttf / Cabin-Regular.otf / Cabin-SemiBold.ttf / Cabin-SemiBoldItalic.ttf / Caramella_Regular.ttf / CT Mercurius Medium.otf / WoodlandITC-Demi.otf / WoodlandITC-Heavy.otf / WoodlandITC-Light.otf / WoodlandITC-Medium.otf / WoodlandITC-Medium.ttf / BakerSignetBT-Roman.otf / BAKESBR.TTF / OpenSans-Semibold.ttf
    
    Video
    ID                             : 1
    Format                         : AVC
    Format/Info                    : Advanced Video Codec
    Format profile                 : High [email protected]
    Format settings, CABAC         : Yes
    Format settings, ReFrames      : 16 frames
    Codec ID                       : V_MPEG4/ISO/AVC
    Duration                       : 23mn 0s
    Width                          : 1 920 pixels
    Height                         : 1 080 pixels
    Display aspect ratio           : 16:9
    Frame rate mode                : Constant
    Frame rate                     : 23.976 fps
    Color space                    : YUV
    Chroma subsampling             : 4:2:0
    Bit depth                      : 10 bits
    Scan type                      : Progressive
    Title                          : Video
    Writing library                : x264 core 148 r2638 7599210
    Encoding settings              : cabac=1 / ref=16 / deblock=1:1:0 / analyse=0x3:0x133 / me=umh / subme=11 / psy=1 / psy_rd=1.15:0.25 / mixed_ref=1 / me_range=30 / chroma_me=1 / trellis=2 / 8x8dct=1 / cqm=0 / deadzone=21,11 / fast_pskip=0 / chroma_qp_offset=-4 / threads=12 / lookahead_threads=3 / sliced_threads=0 / nr=0 / decimate=0 / interlaced=0 / bluray_compat=0 / constrained_intra=0 / bframes=16 / b_pyramid=2 / b_adapt=2 / b_bias=0 / direct=3 / weightb=1 / open_gop=0 / weightp=2 / keyint=249 / keyint_min=23 / scenecut=40 / intra_refresh=0 / rc_lookahead=249 / rc=crf / mbtree=1 / crf=16.0 / qcomp=0.70 / qpmin=0 / qpmax=81 / qpstep=4 / ip_ratio=1.40 / aq=2:0.80
    Language                       : German
    Default                        : Yes
    Forced                         : No
    Color range                    : Limited
    Color primaries                : BT.709
    Transfer characteristics       : BT.709
    Matrix coefficients            : BT.709
    
    Audio
    ID                             : 2
    Format                         : AAC
    Format/Info                    : Advanced Audio Codec
    Format profile                 : LC
    Codec ID                       : A_AAC
    Duration                       : 23mn 0s
    Channel(s)                     : 2 channels
    Channel positions              : Front: L R
    Sampling rate                  : 44.1 KHz
    Compression mode               : Lossy
    Title                          : Audio
    Language                       : Japanese
    Default                        : Yes
    Forced                         : No
    
    Text #1
    ID                             : 3
    Format                         : ASS
    Codec ID                       : S_TEXT/ASS
    Codec ID/Info                  : Advanced Sub Station Alpha
    Compression mode               : Lossless
    Title                          : Farbsub
    Language                       : German
    Default                        : Yes
    Forced                         : Yes
    
    Text #2
    ID                             : 4
    Format                         : ASS
    Codec ID                       : S_TEXT/ASS
    Codec ID/Info                  : Advanced Sub Station Alpha
    Compression mode               : Lossless
    Title                          : Kein Farbsub
    Language                       : German
    Default                        : No
    Forced                         : No
    
    Menu
    00:00:00.000                   : :Einleitung
    00:01:10.980                   : :Hauptteil
    00:21:24.900                   : :Ending


    Folgen 09 / 12 online
    8Bit und 10Bit
    Folgen einzeln ladbar


    || Download & Passwort ||


    Geschützter Bereich - Bedanke dich beim Poster, um den Bereich sehen zu können
    Hier erfährst Du wie Du Dich bedanken kannst oder werde jetzt Premium Mitglied ab einer Spende von 5€ und erhalte sofortigen Zugriff auf den Downloadbereich!
    Geändert von so1k (25. November 2016 um 21:16 Uhr) Grund: Folgenupdate
    SUPPORT UND REUP ANFRAGEN NUR >> [Links sind nur für registrierte und aktivierte Nutzer sichtbar. Klicke hier um dich zu registrieren.] <<
    Bitte IMMER den Thread-Link mitschicken.

  2. 9 Benutzer sagen Danke:

    Asuka Langley (25. April 2016),BlackDragon333 (4. August 2016),Coji (23. April 2016),Kartox (2. May 2016),Nanatzusaya (18. May 2016),old nick (19. June 2016),Rin58 (30. April 2016),TakashiKudo (23. April 2016),Zap (2. May 2016)

  3. #2
    Fansub > Simulcast Avatar von Gott Enel
    Registriert seit
    Mar 2016
    Ort
    Himmel
    Beiträge
    205
    Punkte
    1.761
    Errungenschaften:
    1000 ErfahrungspunkteTomodachisSenpai

    AW: Flying Witch [Laufend][Jap-Dub][Ger-Sub][720p/1080p-8Bit/10Bit][HDTV] - Chinu

    Flying Witch


    Kurzbeschreibung:
    Zitat Zitat von anisearch
    Kowata Makoto, 15 Jahre alt, kehrt nach langer Abwesenheit mit ihrem Kater zu ihren Verwandten zurück. Aufgrund ihres schlechten Orientierungssinns geht ihre Cousine Chinatsu mit ihr in der Stadt einkaufen. Dabei entdeckt sie die magischen Fähigkeiten ihrer fernen Verwandten, wie z. B. das Fliegen auf einem Besen ...
    Folgenanzahl: 12/12
    Größe pro Folge: ~450MB
    Folgendauer: ~23min
    Produktionshaus: J.C.Staff
    Lizenzhaber: Crunchyroll
    Releaser: Chinurarete-Subs
    Art: Fansub
    Sprache: Japanisch
    Untertitel: Deutsch (Soft)
    Auflösung: 1080p
    Format: MKV
    Quelle: HDTV
    Videocodec: x264
    Farbtiefe: 10bit
    Audiocodec: AAC
    Share-Online:
    Uploaded:

    Medialinfo

    Format : Matroska at 2 962 Kbps
    Length : 487 MiB for 23min 0s 171ms

    Video #0 : AVC
    Aspect : 1920 x 1080 (1.778) at 23.976 fps

    Audio #0 : AAC
    Infos : 2 Kanäle, 44,1 KHz
    Language : ja

    Text #0 : ASS
    Language : de

    Text #1 : ASS
    Language : de



    Geschützter Bereich - Bedanke dich beim Poster, um den Bereich sehen zu können
    Hier erfährst Du wie Du Dich bedanken kannst oder werde jetzt Premium Mitglied ab einer Spende von 5€ und erhalte sofortigen Zugriff auf den Downloadbereich!


Stichworte

Lesezeichen

Berechtigungen

  • Neue Themen erstellen: Nein
  • Themen beantworten: Nein
  • Anhänge hochladen: Nein
  • Beiträge bearbeiten: Nein
  •  

1 2 3 4 5 6 7 8 9 10 11 12 13 14 15 16 17 18 19 20 21 22 23 24 25 26 27 28 29 30 31 32 33 34 35 36 37 38 39 40 41 42 43 44 45 46 47 48 49 50 51 52 53 54 55 56 57 58 59 60 61 62 63 64 65 66 67 68 69 70 71 72 73 74 75 76 77 78 79 80 81 82 83 84 85 86 87 88 89 90 91 92 93 94 95 96 97 98 99 100 101 102 103 104 105 106 107 108 109 110 111 112 113 114 115 116 117 118 119 120 121 122 123 124 125 126 127 128 129 130 131 132 133 134 135 136 137 138 139 140 141 142 143 144 145 146 147 148 149 150 151 152 153 154 155 156 157 158