Ergebnis 1 bis 1 von 1

Thema: Freedom [Jap-Dub][Ger-Sub][720p/1080p][BluRay] - Subs4u

Dieser Thread wurde noch nicht bewertet. Bewerte ihn doch, wenn er dir gefällt!
  1. #1
    United we Stand Avatar von 00Ryuji00
    Registriert seit
    Oct 2012
    Beiträge
    3.902
    Punkte
    99.823
    Errungenschaften:
    TomodachisGang LeaderHikikomoriTagger Amateur50000 Erfahrungspunkte

    Freedom [Jap-Dub][Ger-Sub][720p/1080p][BluRay] - Subs4u

    Freedom
    Freedom Project



    Kurzbeschreibung:
    Zitat Zitat von AniSearch.com
    Die Geschichte spielt in Westeuropa, zu einer Zeit, in der der Krieg den Alltag der Menschen bestimmte. Zu dieser Zeit herrschen sieben Vanadis über sieben Territorien. Die Vanadis wurden nach den mächtigen Waffen benannt, welche sie von einem Drachen anvertraut bekommen haben. Die Macht der Vanadis lässt ihre Gegner und Feinde vor Angst erschaudern und macht sie fast unantastbar für jene, die es wagen sich ihnen entgegen zu stellen.
    Ein junger Graf und Bogenschütze, namens Tigre, aus dem Land von Brune konnte die Macht, die den Vanadis inne wohnt, am eigenen Leib erfahren, als diese angriffen, um das Land einzunehmen. Er wurde von Eleanor "Ellen" Vertalia, welche die Vanadis von Zhcted im Kampf um Brune anführte, auf dem Schlachtfeld besiegt. Ellen aber verschonte das Leben des jungen Mannes, nachdem sie von den Fähigkeiten und Fertigkeiten Tigres erfuhr. Im Austausch für sein Leben muss Tigre von nun an als Diener an Ellens Seite stehen.
    Spieldauer: ~ 30min
    Genre: Abenteuer
    Nebengenres: Abenteuer, Action, Romanze, Scifi
    Jahr: 2006
    Sprache: Japanisch
    Untertitel: Deutsch
    Größe pro Folge: ~ 350MB/520MB
    Episodenanzahl: 7/7
    Format: MP4, MKV
    Auflösung: 720p (16:9), 1080p (16:9)
    Videocodec: x264 (AVC)
    Audiocodec: AAC, AC-3
    Releasegruppe: Subs4u
    Hoster: Uploaded, Share-Online

    MediaInfo
    720p
    Code:
    Format                                   : AVC
    Format/Info                              : Advanced Video Codec
    Format profile                           : [email protected]
    Format settings, CABAC                   : Yes
    Format settings, ReFrames                : 3 frames
    Codec ID                                 : avc1
    Codec ID/Info                            : Advanced Video Coding
    Duration                                 : 24mn 8s
    Bit rate                                 : 1 700 Kbps
    Maximum bit rate                         : 9 751 Kbps
    Width                                    : 1 280 pixels
    Height                                   : 720 pixels
    Display aspect ratio                     : 16:9
    Frame rate mode                          : Constant
    Frame rate                               : 23.976 fps
    Color space                              : YUV
    Chroma subsampling                       : 4:2:0
    Bit depth                                : 8 bits
    Scan type                                : Progressive
    Bits/(Pixel*Frame)                       : 0.077
    Stream size                              : 294 MiB (84%)
    Writing library                          : x264 core 65 r1042bm 5df2a71
    Encoding settings                        : cabac=1 / ref=1 / deblock=1:0:0 / analyse=0x3:0x133 / me=umh / subme=9 / psy_rd=0.0:0.0 / mixed_ref=0 / me_range=16 / chroma_me=1 / trellis=2 / 8x8dct=1 / cqm=0 / deadzone=21,11 / chroma_qp_offset=0 / threads=4 / thread_queue=4 / nr=0 / decimate=1 / mbaff=0 / bframes=2 / b_pyramid=1 / b_adapt=2 / b_bias=0 / direct=3 / wpredb=1 / keyint=239 / keyint_min=24 / scenecut=40(pre) / rc=2pass / bitrate=1700 / ratetol=1.0 / qcomp=0.60 / qpmin=5 / qpmax=51 / qpstep=4 / cplxblur=20.0 / qblur=0.5 / ip_ratio=1.40 / pb_ratio=1.30 / aq=1:1.00:0:10.00
    Encoded date                             : UTC 2009-01-31 23:30:48
    Tagged date                              : UTC 2009-01-31 23:31:08
    
    Audio
    ID                                       : 2
    Format                                   : AAC
    Format/Info                              : Advanced Audio Codec
    Format profile                           : LC
    Codec ID                                 : 40
    Duration                                 : 24mn 9s
    Bit rate mode                            : Variable
    Bit rate                                 : 317 Kbps
    Maximum bit rate                         : 447 Kbps
    Channel count                            : 2 channels
    Original Channel count                   : 6 channels
    Channel positions                        : Front: L C R, Side: L R, LFE
    Sampling rate                            : 48.0 KHz
    Compression mode                         : Lossy
    Stream size                              : 54.7 MiB (16%)
    Title                                    : AAC 6 Ch
    Language                                 : Japanese
    Encoded date                             : UTC 2009-01-31 23:31:06
    Tagged date                              : UTC 2009-01-31 23:31:08
    
    Menu
    00:00:00.000                             : Opening
    00:01:30.591                             : Main Film
    00:22:31.852                             : Ending
    1080p
    Code:
    Format                                   : Matroska
    Format version                           : Version 1
    File size                                : 522 MiB
    Duration                                 : 24mn 9s
    Overall bit rate                         : 3 023 Kbps
    Encoded date                             : UTC 2009-02-01 20:39:49
    Writing application                      : mkvmerge v2.4.2 ('Oh My God') built on Jan 18 2009 17:30:28
    Writing library                          : libebml v0.7.7 + libmatroska v0.8.1
    
    Video
    ID                                       : 1
    Format                                   : AVC
    Format/Info                              : Advanced Video Codec
    Format profile                           : [email protected]
    Format settings, CABAC                   : Yes
    Format settings, ReFrames                : 3 frames
    Codec ID                                 : V_MPEG4/ISO/AVC
    Duration                                 : 24mn 9s
    Bit rate                                 : 2 700 Kbps
    Width                                    : 1 920 pixels
    Height                                   : 1 080 pixels
    Display aspect ratio                     : 16:9
    Frame rate mode                          : Constant
    Frame rate                               : 23.976 fps
    Color space                              : YUV
    Chroma subsampling                       : 4:2:0
    Bit depth                                : 8 bits
    Scan type                                : Progressive
    Bits/(Pixel*Frame)                       : 0.054
    Stream size                              : 457 MiB (87%)
    Title                                    : Freedom 1
    Writing library                          : x264 core 65 r1042bm 5df2a71
    Encoding settings                        : cabac=1 / ref=1 / deblock=1:0:0 / analyse=0x3:0x133 / me=umh / subme=9 / psy_rd=0.0:0.0 / mixed_ref=0 / me_range=16 / chroma_me=1 / trellis=2 / 8x8dct=1 / cqm=0 / deadzone=21,11 / chroma_qp_offset=0 / threads=4 / thread_queue=4 / nr=0 / decimate=1 / mbaff=0 / bframes=2 / b_pyramid=1 / b_adapt=2 / b_bias=0 / direct=3 / wpredb=1 / keyint=239 / keyint_min=24 / scenecut=40(pre) / rc=2pass / bitrate=2700 / ratetol=1.0 / qcomp=0.60 / qpmin=5 / qpmax=51 / qpstep=4 / cplxblur=20.0 / qblur=0.5 / ip_ratio=1.40 / pb_ratio=1.30 / aq=1:1.00:0:10.00
    Language                                 : English
    Default                                  : Yes
    Forced                                   : No
    
    Audio
    ID                                       : 2
    Format                                   : AC-3
    Format/Info                              : Audio Coding 3
    Mode extension                           : CM (complete main)
    Format settings, Endianness              : Big
    Codec ID                                 : A_AC3
    Duration                                 : 24mn 9s
    Bit rate mode                            : Constant
    Bit rate                                 : 320 Kbps
    Channel count                            : 6 channels
    Channel positions                        : Front: L C R, Side: L R, LFE
    Sampling rate                            : 48.0 KHz
    Bit depth                                : 16 bits
    Compression mode                         : Lossy
    Stream size                              : 55.3 MiB (11%)
    Title                                    : AC3 5.1
    Language                                 : Japanese
    Default                                  : Yes
    Forced                                   : No
    
    Menu
    00:00:00.000                             : en:Opening
    00:01:30.591                             : en:Main Film
    00:22:31.852                             : en:Ending




    Geschützter Bereich - Bedanke dich beim Poster, um den Bereich sehen zu können
    Hier erfährst Du wie Du Dich bedanken kannst oder werde jetzt Premium Mitglied ab einer Spende von 5€ und erhalte sofortigen Zugriff auf den Downloadbereich!

    [Links sind nur für registrierte und aktivierte Nutzer sichtbar. Klicke hier um dich zu registrieren.]
    !!!Alle Anliegen bezüglich Uploads werden nur mit direktem Threadlink zum Angebot bearbeitet!!!

    Re-Uploadanfragen nur per PN - Ihr könnt mir auch Listen schicken

    Re-Uploads erfolgen meist innerhalb 24h, kann aber auch bis zu 7 Tage dauern

    [Links sind nur für registrierte und aktivierte Nutzer sichtbar. Klicke hier um dich zu registrieren.] | [Links sind nur für registrierte und aktivierte Nutzer sichtbar. Klicke hier um dich zu registrieren.] | >[Links sind nur für registrierte und aktivierte Nutzer sichtbar. Klicke hier um dich zu registrieren.]<
    [Links sind nur für registrierte und aktivierte Nutzer sichtbar. Klicke hier um dich zu registrieren.]

  2. 4 Benutzer sagen Danke:

    chopper23 (12. November 2016),dadoc91 (30. August 2016),herrwefer (30. August 2016),kadaj93 (16. September 2016)

Lesezeichen

Berechtigungen

  • Neue Themen erstellen: Nein
  • Themen beantworten: Nein
  • Anhänge hochladen: Nein
  • Beiträge bearbeiten: Nein
  •  

1 2 3 4 5 6 7 8 9 10 11 12 13 14 15 16 17 18 19 20 21 22 23 24 25 26 27 28 29 30 31 32 33 34 35 36 37 38 39 40 41 42 43 44 45 46 47 48 49 50 51 52 53 54 55 56 57 58 59 60 61 62 63 64 65 66 67 68 69 70 71 72 73 74 75 76 77 78 79 80 81 82 83 84 85 86 87 88 89 90 91 92 93 94 95 96 97 98 99 100 101 102 103 104 105 106 107 108 109 110 111 112 113 114 115 116 117 118 119 120 121 122 123 124 125 126 127 128 129 130 131 132 133 134 135 136 137 138 139 140 141 142 143 144 145 146 147 148 149 150 151 152 153 154 155 156 157 158