Ergebnis 1 bis 1 von 1

Thema: Futakoi Alternative [Jap-Dub][Ger-Sub][480p][DVDRip] - iND

Dieser Thread wurde noch nicht bewertet. Bewerte ihn doch, wenn er dir gefällt!
  1. #1
    Kami-sama Avatar von galudo
    Registriert seit
    Mar 2015
    Beiträge
    1.370
    Punkte
    25.935
    Errungenschaften:
    TomodachisTagger ProfiHyperaktivSenpaiGang Leader

    Futakoi Alternative [Jap-Dub][Ger-Sub][480p][DVDRip] - iND

    Futakoi Alternative
    フタコイ オルタナティブ
    Twin Love 2



    Kurzbeschreibung
    Futaba Rentaro ("Nidaime") besitzt ein Detektivbüro im Nikotamagawa Einkaufsviertel, welches er von seinem Vater geerbt hat. Eines Tages tauchen die Zwillinge Sara und Sojiu Shirogane auf, welche ihm ein Job-Angebot unterbreiten, das sein ganzes Leben verändern wird. Zwei Jahre später lebt Rentaro sorglos mit den Zwillingen zusammen, als die Ereignisse sich plötzlich überschlagen und ihn dazu zwingen, seine Situation zu überdenken.

    Futakoi Alternative beginnt als fulminantes Action- und Comedyspektakel und verlagert sich im Laufe der Serie immer mehr in ein gefühlvolles Drama gespickt mit Comedyelementen.
    Format: AVI
    Sprache: Japanisch
    Untertitel: Deutsch
    Genre: Action, Comedy, Drama, Romanze, Shounen
    Größe: ~ 200 MB pro Folge | Gesamtgröße: 2,3 GB
    Dauer: ~ 24 Minuten
    Jahr: 2005
    Video: 640x480
    Source: DVDRip
    Subgroup / Releasegroup: NAFE(01-07), BANZAI(08), BAF(09-13)

    Hoster: Share-Online | Uploaded
    Passwort: siehe unten


    Datei-Info
    Spoiler
    Code:
    General
    Format                         : AVI
    Format/Info                    : Audio Video Interleave
    File size                      : 200 MiB
    Duration                       : 25mn 14s
    Overall bit rate mode          : Variable
    Overall bit rate               : 1 106 Kbps
    Writing application            : Nandub v1.0rc2
    Writing library                : Nandub build 1853/release
    
    Video
    ID                             : 0
    Format                         : MPEG-4 Visual
    Format profile                 : Advanced [email protected]
    Format settings, BVOP          : 2
    Format settings, QPel          : No
    Format settings, GMC           : No warppoints
    Format settings, Matrix        : Default (H.263)
    Muxing mode                    : Packed bitstream
    Codec ID                       : XVID
    Codec ID/Hint                  : XviD
    Duration                       : 25mn 14s
    Bit rate                       : 967 Kbps
    Width                          : 640 pixels
    Height                         : 480 pixels
    Display aspect ratio           : 4:3
    Frame rate                     : 23.976 fps
    Color space                    : YUV
    Chroma subsampling             : 4:2:0
    Bit depth                      : 8 bits
    Scan type                      : Progressive
    Compression mode               : Lossy
    Bits/(Pixel*Frame)             : 0.131
    Stream size                    : 175 MiB (87%)
    Writing library                : XviD 1.2.0SMP (UTC 2006-01-08)
    
    Audio
    ID                             : 1
    Format                         : MPEG Audio
    Format version                 : Version 1
    Format profile                 : Layer 3
    Mode                           : Joint stereo
    Codec ID                       : 55
    Codec ID/Hint                  : MP3
    Duration                       : 25mn 14s
    Bit rate mode                  : Variable
    Bit rate                       : 126 Kbps
    Minimum bit rate               : 32.0 Kbps
    Channel(s)                     : 2 channels
    Sampling rate                  : 48.0 KHz
    Compression mode               : Lossy
    Delay relative to video        : 15ms
    Stream size                    : 22.7 MiB (11%)
    Alignment                      : Aligned on interleaves
    Interleave, duration           : 24 ms (0.58 video frame)
    Interleave, preload duration   : 381 ms
    Writing library                : LAME3.97b
    Encoding settings              : -m j -V 4 -q 0 -lowpass 17.5 --vbr-old -b 32
    


    Folgen 13 / 13 online
    Folgen einzeln ladbar



    || Download & Passwort ||
    Geschützter Bereich - Bedanke dich beim Poster, um den Bereich sehen zu können
    Hier erfährst Du wie Du Dich bedanken kannst oder werde jetzt Premium Mitglied ab einer Spende von 5€ und erhalte sofortigen Zugriff auf den Downloadbereich!

    Weiteres von Futakoi:
    [Links sind nur für registrierte und aktivierte Nutzer sichtbar. Klicke hier um dich zu registrieren.]

    Geändert von galudo (21. April 2016 um 18:19 Uhr)
    SUPPORT UND REUP ANFRAGEN NUR >> [Links sind nur für registrierte und aktivierte Nutzer sichtbar. Klicke hier um dich zu registrieren.] <<
    Bitte IMMER den Thread-Link mitschicken.

  2. 10 Benutzer sagen Danke:

    Akio (18. October 2015),Aluaran (12. October 2015),Dreieckhard (9. October 2015),GammaWar (11. October 2015),krasserGaul (10. October 2015),Lombrero (9. October 2015),Magicmanx (9. January 2016),midnighter (10. October 2015),prinzvegeta (1. November 2015),tigerhai (9. October 2015)

Stichworte

Lesezeichen

Berechtigungen

  • Neue Themen erstellen: Nein
  • Themen beantworten: Nein
  • Anhänge hochladen: Nein
  • Beiträge bearbeiten: Nein
  •  

1 2 3 4 5 6 7 8 9 10 11 12 13 14 15 16 17 18 19 20 21 22 23 24 25 26 27 28 29 30 31 32 33 34 35 36 37 38 39 40 41 42 43 44 45 46 47 48 49 50 51 52 53 54 55 56 57 58 59 60 61 62 63 64 65 66 67 68 69 70 71 72 73 74 75 76 77 78 79 80 81 82 83 84 85 86 87 88 89 90 91 92 93 94 95 96 97 98 99 100 101 102 103 104 105 106 107 108 109 110 111 112 113 114 115 116 117 118 119 120 121 122 123 124 125 126 127 128 129 130 131 132 133 134 135 136 137 138 139 140 141 142 143 144 145 146 147 148 149 150 151 152 153 154 155 156 157 158