Ergebnis 1 bis 1 von 1

Thema: Fuyu no Semi [Jap-Dub] [Ger-Sub] [DVDRip]

Dieser Thread wurde noch nicht bewertet. Bewerte ihn doch, wenn er dir gefällt!
  1. #1
    United we Stand Avatar von 00Ryuji00
    Registriert seit
    Oct 2012
    Beiträge
    3.896
    Punkte
    99.519
    Errungenschaften:
    TomodachisGang LeaderHikikomoriTagger Amateur50000 Erfahrungspunkte

    Fuyu no Semi [Jap-Dub] [Ger-Sub] [DVDRip]

    Fuyu no Semi
    冬の蝉
    Winter Cicada
    Fuyusemi
    Fuyu no Seme






    Kurzbeschreibung:
    In der Zeit des politischen Umbruchs treffen zwei Männer aufeinander, für die der Platz, der ihnen durch ihre Geburt zugewiesen worden ist, eine schwere Bürde ist. Keiichirou Akizuki ist der Sohn und Erbe einer Vasallenfamilie des Shoguns und ist ein Samurai aus dem Hochadel. Seine Familie hat sich verpflichtet dem Shogun beizustehen und seine Macht zu erhalten, allerdings glaubt Akizuki, dass für Japan ein Wandel notwendig ist. Die neuen Einflüsse der westlichen Länder hält er für immens wichtig und er geht sogar so weit, dass er zwei Flüchtlinge, die scheinbar mit einem Anschlag auf die Stadtregistraten des Shoguns zu tun haben, laufen lässt. In diesem Fall steht das Shogunat als Vertreter der kaiserlichen Regierung da, obwohl sie eigentlich nicht mit deren Einstellung übereinstimmen.

    Bei einem der beiden handelt es sich um Touma Kusaka vom Choshu clan. Der Choshu clan gehört zu den Vorreitern der Anti-West-Politik-Bewegung. Kusaka jedoch glaubt ebenfalls, dass dies nicht der richtige Weg für Japan ist und wollte seine Clanmitglieder von dem Anschlag abhalten.

    Ein paar Jahre später treffen Akizuki und Kusaka wieder aufeinander, Kusaka will unbedingt Englisch lernen, was ihm jedoch verwehrt wird, da er zum traditionellen Choshu clan gehört. Akizuki, der selbst seiner Verpflichtung als Vasall des Shogunats zum trotz, an einer Akademie Englisch lernt, erklärt sich bereit Kusaka heimlich Unterricht zu geben. Die beiden lernen sich mit der Zeit immer besser kennen und sie verbindet eine tiefe Freundschaft und Respekt. Sie teilen viele politische Ansichten und befinden sich trotz des hohen sozialen Unterschiedes so ziemlich in der gleichen Lage. Es dauert nicht lang und zwischen den beiden entwickelt sich eine Bindung, die über Freundschaft hinausgeht.

    Die Rebellion spitzt sich immer weiter zu, doch nun wechselt der Choshu clan die Seiten und verbündet sich mit der kaiserlichen Regierung. Kusaka kann sich einen Traum erfüllen und in England internationales Recht und Politik studieren. Er leidet sehr unter der Trennung von Akizuki.

    Dann beginnt der Krieg und die Samurai des Shogunats stellen sich gegen die kaiserlichen Truppen. Akizuki ist mittlerweile zum Clanoberhaupt ernannt worden und steht in der Pflicht einen aussichtslosen Kampf für den Shogun zu führen. Nachdem Kusaka aus London zurückgekehrt ist, wird er ein Kommandierender der kaiserlichen Armee und muss gegen die Truppen des Shogunats für ein modernes und westliches Japan kämpfen. Er hat große Angst um Akizuki, der nun ja mit Kusakas Feinden für die Traditionen der Samurai kämpfen muss. Kusaka liebt ihn immer noch und weiß, dass auch Akizuki ein modernes Japan möchte. Er versucht ihn zu retten, doch kann es ihm gelingen, wenn sie sich als Feinde gegenüberstehen?


    Sprache: Japanisch
    Untertitel: Deutsch
    Größe: ~175 MB pro Folge
    Episodenanzahl: 3/3
    Format: .mp4
    Auflösung: 576p (1024x576, 16:9)
    Codec: x264
    Gruppe: FA
    Hoster: Share-Online ; Uploaded


    Datei Info:
    Spoiler

    Code:
    
    
    Format                                   : MPEG-4
    Format profile                           : Base Media
    Codec ID                                 : isom
    File size                                : 176 MiB
    Duration                                 : 33mn 40s
    Overall bit rate mode                    : Variable
    Overall bit rate                         : 731 Kbps
    Encoded date                             : UTC 2010-01-02 02:12:47
    Tagged date                              : UTC 2010-01-02 02:12:47
    
    Video
    ID                                       : 1
    Format                                   : AVC
    Format/Info                              : Advanced Video Codec
    Format profile                           : [email protected]
    Format settings, CABAC                   : Yes
    Format settings, ReFrames                : 16 frames
    Codec ID                                 : avc1
    Codec ID/Info                            : Advanced Video Coding
    Duration                                 : 33mn 40s
    Bit rate                                 : 629 Kbps
    Maximum bit rate                         : 3 212 Kbps
    Width                                    : 1 024 pixels
    Height                                   : 576 pixels
    Display aspect ratio                     : 16:9
    Frame rate mode                          : Constant
    Frame rate                               : 23.976 fps
    Color space                              : YUV
    Chroma subsampling                       : 4:2:0
    Bit depth                                : 8 bits
    Scan type                                : Progressive
    Bits/(Pixel*Frame)                       : 0.044
    Stream size                              : 152 MiB (86%)
    Writing library                          : x264 core 54 svn-635M
    Encoding settings                        : cabac=1 / ref=16 / deblock=1:1:1 / analyse=0x3:0x133 / me=umh / subme=7 / brdo=1 / mixed_ref=1 / me_range=16 / chroma_me=1 / trellis=2 / 8x8dct=1 / cqm=0 / deadzone=21,11 / chroma_qp_offset=0 / threads=4 / nr=0 / decimate=1 / mbaff=0 / bframes=3 / b_pyramid=1 / b_adapt=1 / b_bias=0 / direct=3 / wpredb=1 / bime=1 / keyint=250 / keyint_min=25 / scenecut=40(pre) / rc=2pass / bitrate=629 / ratetol=1.0 / rceq='blurCplx^(1-qComp)' / qcomp=0.60 / qpmin=10 / qpmax=51 / qpstep=4 / cplxblur=20.0 / qblur=0.5 / ip_ratio=1.40 / pb_ratio=1.30
    Encoded date                             : UTC 2010-01-02 02:12:47
    Tagged date                              : UTC 2010-01-02 02:12:56
    
    Audio
    ID                                       : 2
    Format                                   : AAC
    Format/Info                              : Advanced Audio Codec
    Format profile                           : LC
    Codec ID                                 : 40
    Duration                                 : 33mn 40s
    Bit rate mode                            : Variable
    Bit rate                                 : 98.4 Kbps
    Maximum bit rate                         : 138 Kbps
    Channel count                            : 2 channels
    Channel positions                        : Front: L R
    Sampling rate                            : 44.1 KHz
    Compression mode                         : Lossy
    Stream size                              : 23.7 MiB (13%)
    Encoded date                             : UTC 2010-01-02 02:12:54
    Tagged date                              : UTC 2010-01-02 02:12:56
    
    





    Geschützter Bereich - Bedanke dich beim Poster, um den Bereich sehen zu können
    Hier erfährst Du wie Du Dich bedanken kannst oder werde jetzt Premium Mitglied ab einer Spende von 5€ und erhalte sofortigen Zugriff auf den Downloadbereich!

    !!!Alle Anliegen bezüglich Uploads werden nur mit direktem Threadlink zum Angebot bearbeitet!!!

    Re-Uploadanfragen nur per PN - Ihr könnt mir auch Listen schicken

    Re-Uploads erfolgen meist innerhalb 24h, kann aber auch bis zu 7 Tage dauern

    [Links sind nur für registrierte und aktivierte Nutzer sichtbar. Klicke hier um dich zu registrieren.] | [Links sind nur für registrierte und aktivierte Nutzer sichtbar. Klicke hier um dich zu registrieren.] | >[Links sind nur für registrierte und aktivierte Nutzer sichtbar. Klicke hier um dich zu registrieren.]<
    [Links sind nur für registrierte und aktivierte Nutzer sichtbar. Klicke hier um dich zu registrieren.]

  2. 4 Benutzer sagen Danke:

    Akio (30. January 2016),Bloodywaffe (23. December 2015),midnighter (19. May 2015),prinzvegeta (31. August 2015)

Lesezeichen

Berechtigungen

  • Neue Themen erstellen: Nein
  • Themen beantworten: Nein
  • Anhänge hochladen: Nein
  • Beiträge bearbeiten: Nein
  •  

1 2 3 4 5 6 7 8 9 10 11 12 13 14 15 16 17 18 19 20 21 22 23 24 25 26 27 28 29 30 31 32 33 34 35 36 37 38 39 40 41 42 43 44 45 46 47 48 49 50 51 52 53 54 55 56 57 58 59 60 61 62 63 64 65 66 67 68 69 70 71 72 73 74 75 76 77 78 79 80 81 82 83 84 85 86 87 88 89 90 91 92 93 94 95 96 97 98 99 100 101 102 103 104 105 106 107 108 109 110 111 112 113 114 115 116 117 118 119 120 121 122 123 124 125 126 127 128 129 130 131 132 133 134 135 136 137 138 139 140 141 142 143 144 145 146 147 148 149 150 151 152 153 154 155 156 157 158