Ergebnis 1 bis 1 von 1

Thema: Galaxy Angel (S1) [Jap-Dub][Ger-Sub][480p][DVDRip]

Dieser Thread wurde noch nicht bewertet. Bewerte ihn doch, wenn er dir gefällt!
  1. #1
    United we Stand Avatar von 00Ryuji00
    Registriert seit
    Oct 2012
    Beiträge
    3.900
    Punkte
    99.760
    Errungenschaften:
    TomodachisGang LeaderHikikomoriTagger Amateur50000 Erfahrungspunkte

    Galaxy Angel (S1) [Jap-Dub][Ger-Sub][480p][DVDRip]

    Galaxy Angel
    ギャラクシーエンジェル
    ga1






    Kurzbeschreibung:
    Die Engels Brigade, eine militärische Eliteeinheit des Transbaal Imperiums, wird dazu auserkoren, nach der „Verlorenen Technologie“ zu suchen. Das sind mystische und geheimnisvolle Gegenstände aus der Vergangenheit, welche ungeahnte Kräfte haben.

    Angeführt vom Oberst Volcott O' Huey, welcher kurz vor seinem Ruhestand steht, reist nun die Brigade, voll mit süßen Mädchen, auf ihrem speziell entworfenen Schiff durchs All, auf der Suche nach den Gegenständen der verlorenen Technologie. Dumm nur, dass sie des Öfteren von ihrer eigentlichen Mission abgelenkt werden, weil sie in irgendwelche mühsame Situationen geraten, was ihnen ganz schöne Umstände bereitet, da wieder raus zukommen.


    Sprache: Japanisch
    Untertitel: Deutsch
    Episodenanzahl: 26/26
    Format: .avi
    Auflösung: 480p (4:3)
    Codec: XviD
    Gruppe: C-Subs
    Hoster: Share-Online ; Uploaded


    Datei Info:
    Spoiler

    Code:
    
    
    Format                                   : AVI
    Format/Info                              : Audio Video Interleave
    Format profile                           : OpenDML
    Format settings                          : rec
    File size                                : 168 MiB
    Duration                                 : 13mn 31s
    Overall bit rate                         : 1 736 Kbps
    Writing application                      : AVI-Mux GUI 1.17.7, Aug  8 2006  20:59:17
    
    Video
    ID                                       : 0
    Format                                   : MPEG-4 Visual
    Format profile                           : Advanced [email protected]
    Format settings, BVOP                    : 2
    Format settings, QPel                    : Yes
    Format settings, GMC                     : No warppoints
    Format settings, Matrix                  : Default (H.263)
    Muxing mode                              : Packed bitstream
    Codec ID                                 : XVID
    Codec ID/Hint                            : XviD
    Duration                                 : 13mn 31s
    Bit rate                                 : 1 535 Kbps
    Width                                    : 640 pixels
    Height                                   : 480 pixels
    Display aspect ratio                     : 4:3
    Frame rate                               : 23.976 fps
    Color space                              : YUV
    Chroma subsampling                       : 4:2:0
    Bit depth                                : 8 bits
    Scan type                                : Progressive
    Compression mode                         : Lossy
    Bits/(Pixel*Frame)                       : 0.208
    Stream size                              : 148 MiB (88%)
    Writing library                          : XviD 1.2.1 (UTC 2008-12-04)
    
    Audio
    ID                                       : 1
    Format                                   : MPEG Audio
    Format version                           : Version 1
    Format profile                           : Layer 3
    Codec ID                                 : 55
    Codec ID/Hint                            : MP3
    Duration                                 : 13mn 31s
    Bit rate mode                            : Constant
    Bit rate                                 : 192 Kbps
    Channel count                            : 2 channels
    Sampling rate                            : 48.0 KHz
    Compression mode                         : Lossy
    Stream size                              : 18.6 MiB (11%)
    Alignment                                : Aligned on interleaves
    Interleave, duration                     : 24 ms (0.58 video frame)
    Interleave, preload duration             : 192 ms
    Title                                    : [Galaxy_Angel][01]
    Writing library                          : LAME3.90.
    Encoding settings                        : -m s -V 4 -q 0 -lowpass 18.7 -b 192
    
    





    Geschützter Bereich - Bedanke dich beim Poster, um den Bereich sehen zu können
    Hier erfährst Du wie Du Dich bedanken kannst oder werde jetzt Premium Mitglied ab einer Spende von 5€ und erhalte sofortigen Zugriff auf den Downloadbereich!

    !!!Alle Anliegen bezüglich Uploads werden nur mit direktem Threadlink zum Angebot bearbeitet!!!

    Re-Uploadanfragen nur per PN - Ihr könnt mir auch Listen schicken

    Re-Uploads erfolgen meist innerhalb 24h, kann aber auch bis zu 7 Tage dauern

    [Links sind nur für registrierte und aktivierte Nutzer sichtbar. Klicke hier um dich zu registrieren.] | [Links sind nur für registrierte und aktivierte Nutzer sichtbar. Klicke hier um dich zu registrieren.] | >[Links sind nur für registrierte und aktivierte Nutzer sichtbar. Klicke hier um dich zu registrieren.]<
    [Links sind nur für registrierte und aktivierte Nutzer sichtbar. Klicke hier um dich zu registrieren.]

  2. 5 Benutzer sagen Danke:

    Akio (12. November 2015),midnighter (1. August 2015),Nanatzusaya (31. July 2015),prinzvegeta (10. August 2015),SONNYxq (31. July 2015)

Lesezeichen

Berechtigungen

  • Neue Themen erstellen: Nein
  • Themen beantworten: Nein
  • Anhänge hochladen: Nein
  • Beiträge bearbeiten: Nein
  •  

1 2 3 4 5 6 7 8 9 10 11 12 13 14 15 16 17 18 19 20 21 22 23 24 25 26 27 28 29 30 31 32 33 34 35 36 37 38 39 40 41 42 43 44 45 46 47 48 49 50 51 52 53 54 55 56 57 58 59 60 61 62 63 64 65 66 67 68 69 70 71 72 73 74 75 76 77 78 79 80 81 82 83 84 85 86 87 88 89 90 91 92 93 94 95 96 97 98 99 100 101 102 103 104 105 106 107 108 109 110 111 112 113 114 115 116 117 118 119 120 121 122 123 124 125 126 127 128 129 130 131 132 133 134 135 136 137 138 139 140 141 142 143 144 145 146 147 148 149 150 151 152 153 154 155 156 157 158