Ergebnis 1 bis 1 von 1

Thema: Garo: Honoo no Kokuin [Jap-Dub][Ger-Sub][720p][HDTV] - AR

Dieser Thread wurde noch nicht bewertet. Bewerte ihn doch, wenn er dir gefällt!
  1. #1
    United we Stand Avatar von 00Ryuji00
    Registriert seit
    Oct 2012
    Beiträge
    3.902
    Punkte
    100.092
    Errungenschaften:
    TomodachisGang LeaderHikikomoriTagger Amateur50000 Erfahrungspunkte

    Garo: Honoo no Kokuin [Jap-Dub][Ger-Sub][720p][HDTV] - AR

    Garo: Honoo no Kokuin
    牙狼 -炎の刻印-
    Garo: The Animation
    Garo Project



    Kurzbeschreibung:
    Als der Berater des Königs zur Hexenjagd bläst, geraten auch die Makai-Ritter und Makai-Priester ins Visier der königlichen Truppen, obwohl diese beiden Gruppierungen eigentlich den Schutz der Bevölkerung zur Aufgabe haben. Schon dazu verurteilt am Scheiterhaufen zu sterben, gebiert eine der Priesterinnen einen Sohn, Leon Lewis. Das Baby wird von seinem Vater gerettet, einem Makai-Ritter, lernt seine Mutter aber nie kennen. Leon wächst als ein Nachkomme der Goldenen Ritter auf und erbt so schließlich auch deren Goldene Rüstung. Währenddessen nutzt der Berater des Königs dessen Krankheit, um selbst die Macht zu ergreifen und vertreibt Prinz Alfonso und dessen Mutter aus dem Land. Alfonso sucht nun nach dem legendären Goldenen Ritter, in der Hoffnung mit ihm sein Königreich zurückerobern zu können.
    Sprache: Japanisch
    Untertitel: Deutsch
    Spieldauer: ~ 24min
    Größe: ~ 500MB
    Episodenanzahl: 24/24
    Format: .mp4
    Auflösung: 720p (1280x720, 16:9)
    Codec: x264, AC-3
    Gruppe: Allround-Subs
    Hoster: Uploaded, Share-Online

    Datei-Info.:
    Spoiler
    Code:
    Format                                   : MPEG-4
    Format profile                           : Base Media
    Codec ID                                 : isom
    File size                                : 478 MiB
    Duration                                 : 24mn 20s
    Overall bit rate                         : 2 746 Kbps
    Encoded date                             : UTC 2015-06-09 21:26:37
    Tagged date                              : UTC 2015-06-09 21:26:37
    
    Video
    ID                                       : 1
    Format                                   : AVC
    Format/Info                              : Advanced Video Codec
    Format profile                           : [email protected]
    Format settings, CABAC                   : Yes
    Format settings, ReFrames                : 8 frames
    Codec ID                                 : avc1
    Codec ID/Info                            : Advanced Video Coding
    Duration                                 : 24mn 20s
    Bit rate                                 : 2 360 Kbps
    Maximum bit rate                         : 12.9 Mbps
    Width                                    : 1 280 pixels
    Height                                   : 720 pixels
    Display aspect ratio                     : 16:9
    Frame rate mode                          : Constant
    Frame rate                               : 23.976 fps
    Color space                              : YUV
    Chroma subsampling                       : 4:2:0
    Bit depth                                : 8 bits
    Scan type                                : Progressive
    Bits/(Pixel*Frame)                       : 0.107
    Stream size                              : 411 MiB (86%)
    Writing library                          : x264 core 146 r2538 121396c
    Encoding settings                        : cabac=1 / ref=8 / deblock=1:0:0 / analyse=0x3:0x133 / me=umh / subme=9 / psy=1 / psy_rd=1.00:0.00 / mixed_ref=1 / me_range=16 / chroma_me=1 / trellis=2 / 8x8dct=1 / cqm=0 / deadzone=21,11 / fast_pskip=1 / chroma_qp_offset=-2 / threads=6 / lookahead_threads=1 / sliced_threads=0 / nr=0 / decimate=1 / interlaced=0 / bluray_compat=0 / constrained_intra=0 / bframes=3 / b_pyramid=2 / b_adapt=2 / b_bias=0 / direct=3 / weightb=1 / open_gop=0 / weightp=2 / keyint=240 / keyint_min=23 / scenecut=40 / intra_refresh=0 / rc_lookahead=60 / rc=crf / mbtree=1 / crf=16.0 / qcomp=0.60 / qpmin=10 / qpmax=51 / qpstep=4 / ip_ratio=1.40 / aq=1:1.00
    Encoded date                             : UTC 2015-06-09 21:13:15
    Tagged date                              : UTC 2015-06-09 21:27:04
    
    Audio
    ID                                       : 2
    Format                                   : AC-3
    Format/Info                              : Audio Coding 3
    Mode extension                           : CM (complete main)
    Format settings, Endianness              : Big
    Codec ID                                 : ac-3
    Duration                                 : 24mn 20s
    Bit rate mode                            : Constant
    Bit rate                                 : 384 Kbps
    Channel count                            : 2 channels
    Channel positions                        : Front: L R
    Sampling rate                            : 48.0 KHz
    Bit depth                                : 16 bits
    Compression mode                         : Lossy
    Stream size                              : 66.8 MiB (14%)
    Encoded date                             : UTC 2015-06-09 21:26:38
    Tagged date                              : UTC 2015-06-09 21:27:04
    


    Geschützter Bereich - Bedanke dich beim Poster, um den Bereich sehen zu können
    Hier erfährst Du wie Du Dich bedanken kannst oder werde jetzt Premium Mitglied ab einer Spende von 5€ und erhalte sofortigen Zugriff auf den Downloadbereich!
    Geändert von 00Ryuji00 (14. April 2016 um 05:07 Uhr)
    !!!Alle Anliegen bezüglich Uploads werden nur mit direktem Threadlink zum Angebot bearbeitet!!!

    Re-Uploadanfragen nur per PN - Ihr könnt mir auch Listen schicken

    Re-Uploads folgen nach Anfrage meist am Wochenende

    [Links sind nur für registrierte und aktivierte Nutzer sichtbar. Klicke hier um dich zu registrieren.] | [Links sind nur für registrierte und aktivierte Nutzer sichtbar. Klicke hier um dich zu registrieren.] | >[Links sind nur für registrierte und aktivierte Nutzer sichtbar. Klicke hier um dich zu registrieren.]<
    [Links sind nur für registrierte und aktivierte Nutzer sichtbar. Klicke hier um dich zu registrieren.]

  2. 45 Benutzer sagen Danke:

    Antipott (27. September 2015),arginator (21. September 2015),Cande (19. September 2015),Ch1quita (11. January 2016),Chrissi89 (17. January 2016),classius (22. September 2015),CrystalBT (5. January 2016),DarkTerminator (29. July 2016),DomStrike (22. May 2016),Frag0042 (24. December 2015),Geisterhaendler (29. January 2016),Genshirou (4. October 2015),goldratte (8. May 2016),Griever (20. October 2016),Hi im Shini (11. August 2016),hunterhunter (25. January 2016),imnuan (18. October 2015),kadaj93 (2. August 2015),kashmael (21. November 2016),killerder0 (24. December 2015),Kox598 (26. January 2016),Kradus (11. November 2015),Major1711 (2. August 2015),mar3el (23. December 2015),Max13493 (2. August 2015),midnighter (4. August 2015),MooMo (10. December 2015),Nanashi (15. December 2015),Nanatzusaya (2. August 2015),paulito.1 (3. August 2015),realmadridcf (2. October 2015),rudizone (15. October 2015),samuuil (10. May 2016),Scypher (30. August 2015),Seki (16. November 2015),Shadowa (3. December 2015),sonic1992j (18. August 2015),Sunrise (23. August 2015),thegroudge (3. December 2016),THOR543 (29. November 2015),tigerhai (3. August 2015),Tschu23 (3. January 2016),whitephantom (22. October 2015),YamiXGhost (2. August 2015),ZomKne (22. December 2015)

Lesezeichen

Berechtigungen

  • Neue Themen erstellen: Nein
  • Themen beantworten: Nein
  • Anhänge hochladen: Nein
  • Beiträge bearbeiten: Nein
  •  

1 2 3 4 5 6 7 8 9 10 11 12 13 14 15 16 17 18 19 20 21 22 23 24 25 26 27 28 29 30 31 32 33 34 35 36 37 38 39 40 41 42 43 44 45 46 47 48 49 50 51 52 53 54 55 56 57 58 59 60 61 62 63 64 65 66 67 68 69 70 71 72 73 74 75 76 77 78 79 80 81 82 83 84 85 86 87 88 89 90 91 92 93 94 95 96 97 98 99 100 101 102 103 104 105 106 107 108 109 110 111 112 113 114 115 116 117 118 119 120 121 122 123 124 125 126 127 128 129 130 131 132 133 134 135 136 137 138 139 140 141 142 143 144 145 146 147 148 149 150 151 152 153 154 155 156 157 158