Ergebnis 1 bis 1 von 1

Thema: Gatchaman Crowds [Ger Sub][Jap Dub][720p][HDTV]

Dieser Thread wurde noch nicht bewertet. Bewerte ihn doch, wenn er dir gefällt!
  1. #1
    Erfahrener Otaku Avatar von Kajiro
    Registriert seit
    Mar 2014
    Ort
    Irgendwo im Nirgendwo
    Beiträge
    213
    Punkte
    10.403
    Errungenschaften:
    10000 ErfahrungspunkteHikikomori

    Gatchaman Crowds [Ger Sub][Jap Dub][720p][HDTV]


    Gatchaman Crowds





    Kurzbeschreibung:
    Japan 2015: 180.000 Menschen leben in Tachikawa City, der "zweiten Metropole" des Raumes Tokio. Unter ihnen sind auch die "Gatchaman", Kämpfer, welche in speziellen Anzügen kämpfen, die von "NOTE" angetrieben werden, der Manifestation der den Lebewesen innewohnenden spirituellen Kräfte. Für die Gatchaman wurden Leute mit latenten Kräften rekrutiert, um die Erde vor außerirdischen Kriminellen zu schützen. Eine der Gatchaman ist die High School Schülerin Hajime, die gemeinsam mit ihren Partnern beauftragt wurde gegen die mysteriöse Organisation namens "MESS" vorzugehen.


    Sprache: Japanisch
    Untertitel: Deutsch
    Folgen:12/12
    Größe:~216MB
    Format: MP4
    Auflösung: 1280x720
    Genre:Action
    Sub Gruppe:[Pure-Anime]


    Datei Info:
    Spoiler
    Video
    ID : 1
    Format : AVC
    Format/Info : Advanced Video Codec
    Format profile : [email protected]
    Format settings, CABAC : Yes
    Format settings, ReFrames : 8 frames
    Codec ID : avc1
    Codec ID/Info : Advanced Video Coding
    Duration : 22mn 52s
    Bit rate : 1 229 Kbps
    Maximum bit rate : 10.8 Mbps
    Width : 1 280 pixels
    Height : 720 pixels
    Display aspect ratio : 16:9
    Frame rate mode : Constant
    Frame rate : 23.976 fps
    Color space : YUV
    Chroma subsampling : 4:2:0
    Bit depth : 8 bits
    Scan type : Progressive
    Bits/(Pixel*Frame) : 0.056
    Stream size : 201 MiB (95%)
    Writing library : x264 core 130 r2273 b3065e6
    Encoding settings : cabac=1 / ref=8 / deblock=1:0:0 / analyse=0x3:0x133 / me=umh / subme=7 / psy=1 / psy_rd=0.40:0.00 / mixed_ref=1 / me_range=16 / chroma_me=1 / trellis=2 / 8x8dct=1 / cqm=0 / deadzone=21,11 / fast_pskip=0 / chroma_qp_offset=-2 / threads=18 / lookahead_threads=3 / sliced_threads=0 / nr=0 / decimate=1 / interlaced=0 / bluray_compat=0 / constrained_intra=0 / bframes=16 / b_pyramid=2 / b_adapt=1 / b_bias=0 / direct=3 / weightb=0 / open_gop=0 / weightp=2 / keyint=250 / keyint_min=23 / scenecut=40 / intra_refresh=0 / rc_lookahead=50 / rc=crf / mbtree=1 / crf=22.0 / qcomp=0.70 / qpmin=0 / qpmax=69 / qpstep=4 / ip_ratio=1.40 / aq=1:0.60
    Encoded date : UTC 2013-08-25 12:33:21
    Tagged date : UTC 2013-08-25 12:33:22

    Audio
    ID : 2
    Format : AAC
    Format/Info : Advanced Audio Codec
    Format profile : HE-AAC / LC
    Codec ID : 40
    Duration : 22mn 52s
    Bit rate mode : Variable
    Bit rate : 64.0 Kbps
    Maximum bit rate : 78.2 Kbps
    Channel(s) : 2 channels
    Channel positions : Front: L R
    Sampling rate : 44.1 KHz / 22.05 KHz
    Compression mode : Lossy
    Delay relative to video : -5s 5ms
    Stream size : 10.5 MiB (5%)
    Encoded date : UTC 2013-08-25 12:33:22
    Tagged date : UTC 2013-08-25 12:33:22






    Geschützter Bereich - Bedanke dich beim Poster, um den Bereich sehen zu können
    Hier erfährst Du wie Du Dich bedanken kannst oder werde jetzt Premium Mitglied ab einer Spende von 5€ und erhalte sofortigen Zugriff auf den Downloadbereich!

    Inaktiver Uploader!

    Alle Re-Upload-Anfragen öffentlich im [Links sind nur für registrierte und aktivierte Nutzer sichtbar. Klicke hier um dich zu registrieren.] posten!

  2. 75 Benutzer sagen Danke:

    Anzeigen

    Agros (2. September 2014),AkaTenshi (14. February 2016),Antipott (21. September 2014),Berserk27 (1. August 2014),Besen 48 (12. October 2015),BlackDragon333 (4. September 2015),BlackMekkor (20. July 2015),BlackOut84 (6. July 2015),Blocker (28. July 2014),Bloodyair (30. July 2014),C3M-O- (29. July 2015),Ch1quita (31. July 2014),chillstar (30. December 2014),Chrissi89 (14. April 2015),Chrystals_Tear89 (20. June 2015),coldbears48 (10. September 2015),Corntendo (26. January 2016),Daredevil1989_inactive (25. February 2015),Dark Justice (30. July 2014),data_ghoul (3. September 2015),demonXcore (18. September 2015),DJPAUL1990 (4. January 2015),Doji02 (5. August 2014),Drachengott (3. August 2014),dreambird1973 (11. July 2016),exo (29. July 2014),Floubou (17. February 2016),folgar (31. July 2014),GeneralD (24. March 2015),hadis1000 (29. May 2016),hamel (1. November 2015),Haxz0r (20. July 2015),IBlackstar (19. April 2016),IBlackstar17 (4. August 2014),inst4gib (27. November 2016),kadaj93 (2. September 2014),kanita (3. August 2014),Keniji (5. August 2014),krausi22 (30. July 2014),Kurzey (4. January 2015),Lagosso (26. January 2015),LawMugen (5. November 2014),LawrenceKraft (10. December 2014),LouiLightning (22. June 2015),Megamani (14. May 2015),meyno (1. July 2015),MooMo (22. September 2015),Mr.Shit (13. September 2015),Nanatzusaya (6. July 2015),NLHTeddyNLH (30. October 2015),Nonescope (11. July 2015),NUVAKWAHU (23. June 2016),okzide (28. July 2014),Otonashi Yuzuru (7. December 2015),phtop (18. June 2015),Psycho-Shizuka (9. July 2015),Raven (30. July 2014),rekiznuh1 (3. July 2015),Rikune (10. December 2014),Roxas-chan (20. September 2015),RoyalTenshi (23. February 2015),S1M0N93 (13. October 2015),Sansento (23. June 2015),Scruffy (6. July 2016),SerienStream (18. July 2015),SnowCat (1. August 2014),Stones (1. July 2015),th3cr0w (8. February 2016),TheFighter (9. December 2014),toter Fisch (10. August 2015),Tschu23 (31. August 2015),Valetinese (28. July 2014),Windwusel (9. July 2015),Xerx3s (7. April 2016),xZodiac (30. July 2014)

Lesezeichen

Berechtigungen

  • Neue Themen erstellen: Nein
  • Themen beantworten: Nein
  • Anhänge hochladen: Nein
  • Beiträge bearbeiten: Nein
  •  

1 2 3 4 5 6 7 8 9 10 11 12 13 14 15 16 17 18 19 20 21 22 23 24 25 26 27 28 29 30 31 32 33 34 35 36 37 38 39 40 41 42 43 44 45 46 47 48 49 50 51 52 53 54 55 56 57 58 59 60 61 62 63 64 65 66 67 68 69 70 71 72 73 74 75 76 77 78 79 80 81 82 83 84 85 86 87 88 89 90 91 92 93 94 95 96 97 98 99 100 101 102 103 104 105 106 107 108 109 110 111 112 113 114 115 116 117 118 119 120 121 122 123 124 125 126 127 128 129 130 131 132 133 134 135 136 137 138 139 140 141 142 143 144 145 146 147 148 149 150 151 152 153 154 155 156 157 158