Ergebnis 1 bis 1 von 1

Thema: Gekkan Shoujo Nozaki-kun [Jap-Dub][Ger-Sub][720p][HDTV]

Dieser Thread wurde durchschnittlich mit 3 Sternen bewertet, wobei 1 Stern die schlechteste und 5 Sterne die beste Bewertung ist. Es haben insgesamt 1 Mitglieder eine Bewertung abgegeben.

  1. #1
    Erfahrener Otaku Avatar von Kajiro
    Registriert seit
    Mar 2014
    Ort
    Irgendwo im Nirgendwo
    Beiträge
    213
    Punkte
    10.403
    Errungenschaften:
    10000 ErfahrungspunkteHikikomori

    Gekkan Shoujo Nozaki-kun [Jap-Dub][Ger-Sub][720p][HDTV]


    Gekkan Shoujo Nozaki-Kun




    Kurzbeschreibung:
    Die High-School-Schülerin Chiyo Sakura ist in ihren Mitschüler Umetarō Nozaki verliebt. Als sie ihm unerwartet ihre Liebe gesteht, hält er sie jedoch für einen Fan und gibt ihr ein Autogramm. Sie sagt ihm, dass sie für immer bei ihm sein will und wird daraufhin zu ihm nachhause eingeladen, um ihm bei seinen Zeichnungen zu helfen. Es stellt sich heraus, dass Nozaki ein renommierter – unter dem Küstlernamen Sakiko Yumeno bekannter – Mangaka ist.
    Um näher bei Nozaki zu sein, wird sie seine Assistentin. Im Verlauf der Arbeit an seinem Manga Let's Love treffen die Beiden auf etliche Mitschüler, die ihnen assistieren und ihnen als Inspiration für neue Charaktere in der Geschichte dienen.


    Sprache: Japanisch
    Untertitel: Deutsch
    Folgen: 12/12
    Größe:215MB
    Format: MP4
    Auflösung: 1280x720
    Genre: Komödie
    Sub Gruppe: [P-A]


    Datei Info:
    Spoiler
    Video
    ID : 1
    Format : AVC
    Format/Info : Advanced Video Codec
    Format profile : [email protected]
    Format settings, CABAC : Yes
    Format settings, ReFrames : 4 frames
    Codec ID : avc1
    Codec ID/Info : Advanced Video Coding
    Duration : 23mn 56s
    Bit rate : 1 097 Kbps
    Maximum bit rate : 5 399 Kbps
    Width : 1 280 pixels
    Height : 720 pixels
    Display aspect ratio : 16:9
    Frame rate mode : Constant
    Frame rate : 23.976 fps
    Color space : YUV
    Chroma subsampling : 4:2:0
    Bit depth : 8 bits
    Scan type : Progressive
    Bits/(Pixel*Frame) : 0.050
    Stream size : 188 MiB (88%)
    Title : ˆ
    Writing library : x264 core 125 r2200 999b753


    Audio
    ID : 2
    Format : AAC
    Format/Info : Advanced Audio Codec
    Format profile : LC
    Codec ID : 40
    Duration : 23mn 57s
    Bit rate mode : Variable
    Bit rate : 151 Kbps
    Maximum bit rate : 193 Kbps
    Channel(s) : 2 channels
    Channel positions : Front: L R
    Sampling rate : 44.1 KHz
    Compression mode : Lossy
    Stream size : 25.9 MiB (12%)
    Encoded date : UTC 2014-07-10 14:42:56
    Tagged date : UTC 2014-07-10 14:42:57






    Geschützter Bereich - Bedanke dich beim Poster, um den Bereich sehen zu können
    Hier erfährst Du wie Du Dich bedanken kannst oder werde jetzt Premium Mitglied ab einer Spende von 5€ und erhalte sofortigen Zugriff auf den Downloadbereich!


    Geändert von 00Ryuji00 (5. September 2015 um 01:23 Uhr)
    Inaktiver Uploader!

    Alle Re-Upload-Anfragen öffentlich im [Links sind nur für registrierte und aktivierte Nutzer sichtbar. Klicke hier um dich zu registrieren.] posten!

  2. 60 Benutzer sagen Danke:

    Anzeigen

    Akumah (5. January 2015),animesoulx3 (27. January 2016),Atmozfear (5. November 2015),Besen 48 (18. April 2015),Darkrain (1. January 2016),demon2005 (12. October 2014),Denocide (16. February 2016),doublegf (23. July 2015),Drachengott (16. December 2014),Fairytales (6. October 2014),FingerMove (24. October 2014),Freaky-Ningen (13. October 2015),hadis1000 (23. September 2015),hanismustismann (25. September 2015),Hoodyhood (16. November 2014),isiprimax (6. April 2015),KaizerBeelzebub (11. October 2014),Kartox (23. December 2015),Keldaan (12. December 2014),kiks (4. February 2015),Kiyohime (28. November 2015),kutschi (18. January 2015),LawrenceKraft (17. October 2015),Lilium (7. March 2015),LoganKell (16. October 2015),Messenjah (3. April 2015),meyno (17. February 2016),michael187 (12. October 2015),Mihawk Dulacre (12. November 2014),Noire16 (9. December 2015),Otonashi Yuzuru (11. March 2015),Raivenstar (4. November 2014),RapidKill (2. October 2014),realmadridcf (5. December 2015),Reggaetonboy1 (29. September 2014),rekiznuh1 (6. July 2015),Rena (27. September 2015),Roku6 (11. January 2015),sami123 (6. August 2015),SciTeC (16. August 2015),Scorns (26. January 2015),SerienStream (19. December 2014),sharline (29. April 2015),Skully_88 (2. January 2016),SnowCat (1. October 2014),SONNYxq (7. November 2014),Sora (25. December 2015),Spark (2. January 2015),Stones (14. March 2015),StrikeAngel13 (15. August 2015),th3cr0w (21. September 2015),Tidus18 (9. November 2015),Valetinese (29. September 2014),Valious (19. March 2015),WayneBrady (8. November 2014),Wölfchen (9. March 2015),Xeros94_inactive (4. May 2015),Zap (29. September 2014),_Kazu_ (24. January 2015)

Lesezeichen

Berechtigungen

  • Neue Themen erstellen: Nein
  • Themen beantworten: Nein
  • Anhänge hochladen: Nein
  • Beiträge bearbeiten: Nein
  •  

1 2 3 4 5 6 7 8 9 10 11 12 13 14 15 16 17 18 19 20 21 22 23 24 25 26 27 28 29 30 31 32 33 34 35 36 37 38 39 40 41 42 43 44 45 46 47 48 49 50 51 52 53 54 55 56 57 58 59 60 61 62 63 64 65 66 67 68 69 70 71 72 73 74 75 76 77 78 79 80 81 82 83 84 85 86 87 88 89 90 91 92 93 94 95 96 97 98 99 100 101 102 103 104 105 106 107 108 109 110 111 112 113 114 115 116 117 118 119 120 121 122 123 124 125 126 127 128 129 130 131 132 133 134 135 136 137 138 139 140 141 142 143 144 145 146 147 148 149 150 151 152 153 154 155 156 157 158