Ergebnis 1 bis 2 von 2

Thema: Giant Robo + Gaiden Ginrei Special [Jap-Dub][Ger-Sub][480p][1080p][DVDRip][BluRay]

Dieser Thread wurde noch nicht bewertet. Bewerte ihn doch, wenn er dir gefällt!
  1. #1
    United we Stand Avatar von 00Ryuji00
    Registriert seit
    Oct 2012
    Beiträge
    3.902
    Punkte
    100.019
    Errungenschaften:
    TomodachisGang LeaderHikikomoriTagger Amateur50000 Erfahrungspunkte

    Giant Robo + Gaiden Ginrei Special [Jap-Dub][Ger-Sub][480p][1080p][DVDRip][BluRay]

    Giant Robo
    ジャイアントロボ
    Giant Robo: The Day the Earth Stood Still
    Giant Robo: The Animation
    +
    Giant Robo Gaiden Ginrei
    ジャイアントロボ外伝 GinRei 銀鈴
    Giant Robo Gaiden
    Giant Robo: Gin-Rei Special
    Gin Rei



    Kurzbeschreibung:
    OVA
    Die Erde hat ihre dritte Energie-Revolution hinter sich und sämtliche Energiegewinnung funktioniert nun mittels des sogenannten "Shizuma Drive", eine vollständig wiederverwertbare Energiequelle, die obendrein keine Schadstoffe hinterlässt. Diese Kraftquellen versorgen nun den gesamten Planeten, womit Umweltverschmutzung und Resourcenknappheit der Vergangenheit angehören.

    So schön diese neue Welt auch ist, gibt es immer noch diverse Probleme, insbesondere zwei rivalisierende Mächte, die sich in einem erbitterten Kampf befinden. Die erste wäre die "Big Fire Organization", welche die Welt mit ihrer gigantischen Roboterarmee erobern möchte. Deren Gegenspieler ist die "International Police Organization", die aus einem Team von Spezialagenten besteht, welche sogar über Superkräfte verfügen. Sie gebieten ebenfalls über den mächtigsten Roboter auf dem Planten; den Giant Robo, der von Kusama Daisaku gesteuert wird.

    Special
    In der ersten Episode wird Ginreis Kleid gestohlen, um einen Feind hereinzulegen. Die zweite Episode handelt von einem riesigen Roboter, der aus Ginreis Fantasie entspringt. In der letzten Episode suchen Tetsugyu and Ginrei im Wilden Westen nach einem verschollenen Forscherteam.
    Sprache: Japanisch
    Untertitel: Deutsch
    Spieldauer: ~ 46min + 30min
    Größe: ~ 270-400MB/840-1600MB + 150-220MB
    Episodenanzahl: 7/7 + 3/3
    Format: .mp4
    Auflösung: 480p/1080p (640x480/1476x1080, 4:3)
    Codec: x264, AAC
    Gruppe: FA
    Hoster: Uploaded, Share-Online

    Datei-Info.:
    Details
    OVA 480p
    Code:
    Format                                   : MPEG-4
    Format profile                           : Base Media
    Codec ID                                 : isom
    File size                                : 361 MiB
    Duration                                 : 55mn 53s
    Overall bit rate mode                    : Variable
    Overall bit rate                         : 902 Kbps
    Encoded date                             : UTC 2010-11-16 15:31:26
    Tagged date                              : UTC 2010-11-16 15:31:26
    
    Video
    ID                                       : 1
    Format                                   : AVC
    Format/Info                              : Advanced Video Codec
    Format profile                           : [email protected]
    Format settings, CABAC                   : Yes
    Format settings, ReFrames                : 6 frames
    Codec ID                                 : avc1
    Codec ID/Info                            : Advanced Video Coding
    Duration                                 : 55mn 53s
    Bit rate                                 : 703 Kbps
    Maximum bit rate                         : 5 101 Kbps
    Width                                    : 640 pixels
    Height                                   : 480 pixels
    Display aspect ratio                     : 4:3
    Frame rate mode                          : Constant
    Frame rate                               : 23.976 fps
    Color space                              : YUV
    Chroma subsampling                       : 4:2:0
    Bit depth                                : 8 bits
    Scan type                                : Progressive
    Bits/(Pixel*Frame)                       : 0.095
    Stream size                              : 281 MiB (78%)
    Title                                    : Imported with GPAC 0.4.6-DEV (build 1)
    Writing library                          : x264 core 80 r1376M 3feaec2
    Encoding settings                        : cabac=1 / ref=6 / deblock=1:1:1 / analyse=0x3:0x113 / me=umh / subme=6 / psy=1 / psy_rd=0.4:0.0 / mixed_ref=1 / me_range=12 / chroma_me=1 / trellis=2 / 8x8dct=1 / cqm=0 / deadzone=21,11 / fast_pskip=1 / chroma_qp_offset=-2 / threads=6 / sliced_threads=0 / nr=0 / decimate=1 / mbaff=0 / constrained_intra=0 / bframes=5 / b_pyramid=0 / b_adapt=2 / b_bias=0 / direct=3 / wpredb=1 / wpredp=2 / keyint=250 / keyint_min=25 / scenecut=40 / rc_lookahead=40 / rc=2pass / mbtree=1 / bitrate=703 / ratetol=1.0 / qcomp=0.60 / qpmin=10 / qpmax=51 / qpstep=4 / cplxblur=20.0 / qblur=0.5 / vbv_maxrate=24000 / vbv_bufsize=24000 / ip_ratio=1.40 / aq=1:0.60
    Encoded date                             : UTC 2010-11-16 15:31:26
    Tagged date                              : UTC 2010-11-16 15:31:45
    
    Audio
    ID                                       : 2
    Format                                   : AAC
    Format/Info                              : Advanced Audio Codec
    Format profile                           : LC
    Codec ID                                 : 40
    Duration                                 : 55mn 53s
    Bit rate mode                            : Variable
    Bit rate                                 : 196 Kbps
    Maximum bit rate                         : 271 Kbps
    Channel count                            : 2 channels
    Channel positions                        : Front: L R
    Sampling rate                            : 44.1 KHz
    Compression mode                         : Lossy
    Stream size                              : 78.5 MiB (22%)
    Encoded date                             : UTC 2010-11-16 15:31:39
    Tagged date                              : UTC 2010-11-16 15:31:45
    
    OVA 1080p
    Code:
    Format                                   : MPEG-4
    Format profile                           : Base Media
    Codec ID                                 : isom
    File size                                : 1.45 GiB
    Duration                                 : 55mn 51s
    Overall bit rate mode                    : Variable
    Overall bit rate                         : 3 714 Kbps
    Encoded date                             : UTC 2015-03-13 16:23:49
    Tagged date                              : UTC 2015-03-13 16:23:49
    
    Video
    ID                                       : 1
    Format                                   : AVC
    Format/Info                              : Advanced Video Codec
    Format profile                           : [email protected]
    Format settings, CABAC                   : Yes
    Format settings, ReFrames                : 5 frames
    Codec ID                                 : avc1
    Codec ID/Info                            : Advanced Video Coding
    Duration                                 : 55mn 51s
    Bit rate                                 : 3 567 Kbps
    Maximum bit rate                         : 24.3 Mbps
    Width                                    : 1 476 pixels
    Height                                   : 1 080 pixels
    Display aspect ratio                     : 4:3
    Frame rate mode                          : Constant
    Frame rate                               : 23.976 fps
    Color space                              : YUV
    Chroma subsampling                       : 4:2:0
    Bit depth                                : 8 bits
    Scan type                                : Progressive
    Bits/(Pixel*Frame)                       : 0.093
    Stream size                              : 1.39 GiB (96%)
    Writing library                          : x264 core 142 r2431 ac76440
    Encoding settings                        : cabac=1 / ref=5 / deblock=1:1:1 / analyse=0x3:0x113 / me=hex / subme=8 / psy=1 / psy_rd=1.00:0.00 / mixed_ref=1 / me_range=16 / chroma_me=1 / trellis=2 / 8x8dct=1 / cqm=0 / deadzone=21,11 / fast_pskip=0 / chroma_qp_offset=-3 / threads=6 / lookahead_threads=1 / sliced_threads=0 / nr=0 / decimate=1 / interlaced=0 / bluray_compat=0 / constrained_intra=0 / bframes=5 / b_pyramid=2 / b_adapt=1 / b_bias=0 / direct=1 / weightb=1 / open_gop=0 / weightp=2 / keyint=240 / keyint_min=23 / scenecut=40 / intra_refresh=0 / rc_lookahead=40 / rc=2pass / mbtree=1 / bitrate=3567 / ratetol=1.0 / qcomp=0.60 / qpmin=10 / qpmax=51 / qpstep=4 / cplxblur=20.0 / qblur=0.5 / vbv_maxrate=24000 / vbv_bufsize=24000 / nal_hrd=none / filler=0 / ip_ratio=1.40 / aq=1:1.20
    Encoded date                             : UTC 2015-03-13 16:23:49
    Tagged date                              : UTC 2015-03-13 16:26:01
    
    Audio
    ID                                       : 2
    Format                                   : AAC
    Format/Info                              : Advanced Audio Codec
    Format profile                           : LC
    Codec ID                                 : 40
    Duration                                 : 55mn 51s
    Bit rate mode                            : Variable
    Bit rate                                 : 144 Kbps
    Maximum bit rate                         : 198 Kbps
    Channel count                            : 2 channels
    Channel positions                        : Front: L R
    Sampling rate                            : 48.0 KHz
    Compression mode                         : Lossy
    Stream size                              : 57.4 MiB (4%)
    Encoded date                             : UTC 2015-02-12 13:19:38
    Tagged date                              : UTC 2015-03-13 16:26:01
    
    Special 480p
    Code:
    Format                                   : MPEG-4
    Format profile                           : Base Media
    Codec ID                                 : isom
    File size                                : 141 MiB
    Duration                                 : 20mn 1s
    Overall bit rate mode                    : Variable
    Overall bit rate                         : 981 Kbps
    Encoded date                             : UTC 2010-12-29 01:46:19
    Tagged date                              : UTC 2010-12-29 01:46:19
    
    Video
    ID                                       : 1
    Format                                   : AVC
    Format/Info                              : Advanced Video Codec
    Format profile                           : [email protected]
    Format settings, CABAC                   : Yes
    Format settings, ReFrames                : 6 frames
    Codec ID                                 : avc1
    Codec ID/Info                            : Advanced Video Coding
    Duration                                 : 20mn 1s
    Bit rate                                 : 782 Kbps
    Maximum bit rate                         : 7 494 Kbps
    Width                                    : 640 pixels
    Height                                   : 480 pixels
    Display aspect ratio                     : 4:3
    Frame rate mode                          : Constant
    Frame rate                               : 23.976 fps
    Color space                              : YUV
    Chroma subsampling                       : 4:2:0
    Bit depth                                : 8 bits
    Scan type                                : Progressive
    Bits/(Pixel*Frame)                       : 0.106
    Stream size                              : 112 MiB (80%)
    Title                                    : Imported with GPAC 0.4.6-DEV (build 1)
    Writing library                          : x264 core 80 r1376M 3feaec2
    Encoding settings                        : cabac=1 / ref=6 / deblock=1:1:1 / analyse=0x3:0x113 / me=umh / subme=6 / psy=1 / psy_rd=0.4:0.0 / mixed_ref=1 / me_range=12 / chroma_me=1 / trellis=2 / 8x8dct=1 / cqm=0 / deadzone=21,11 / fast_pskip=1 / chroma_qp_offset=-2 / threads=6 / sliced_threads=0 / nr=0 / decimate=1 / mbaff=0 / constrained_intra=0 / bframes=5 / b_pyramid=0 / b_adapt=2 / b_bias=0 / direct=3 / wpredb=1 / wpredp=2 / keyint=250 / keyint_min=25 / scenecut=40 / rc_lookahead=40 / rc=2pass / mbtree=1 / bitrate=782 / ratetol=1.0 / qcomp=0.60 / qpmin=10 / qpmax=51 / qpstep=4 / cplxblur=20.0 / qblur=0.5 / vbv_maxrate=24000 / vbv_bufsize=24000 / ip_ratio=1.40 / aq=1:0.60
    Encoded date                             : UTC 2010-12-29 01:46:19
    Tagged date                              : UTC 2010-12-29 01:46:23
    
    Audio
    ID                                       : 2
    Format                                   : AAC
    Format/Info                              : Advanced Audio Codec
    Format profile                           : LC
    Codec ID                                 : 40
    Duration                                 : 20mn 1s
    Bit rate mode                            : Variable
    Bit rate                                 : 197 Kbps
    Maximum bit rate                         : 208 Kbps
    Channel count                            : 2 channels
    Channel positions                        : Front: L R
    Sampling rate                            : 44.1 KHz
    Compression mode                         : Lossy
    Stream size                              : 28.2 MiB (20%)
    Encoded date                             : UTC 2010-12-29 01:46:22
    Tagged date                              : UTC 2010-12-29 01:46:23
    


    Geschützter Bereich - Bedanke dich beim Poster, um den Bereich sehen zu können
    Hier erfährst Du wie Du Dich bedanken kannst oder werde jetzt Premium Mitglied ab einer Spende von 5€ und erhalte sofortigen Zugriff auf den Downloadbereich!
    Geändert von 00Ryuji00 (14. April 2016 um 05:06 Uhr)
    !!!Alle Anliegen bezüglich Uploads werden nur mit direktem Threadlink zum Angebot bearbeitet!!!

    Re-Uploadanfragen nur per PN - Ihr könnt mir auch Listen schicken

    Re-Uploads erfolgen meist innerhalb 24h, kann aber auch bis zu 7 Tage dauern

    [Links sind nur für registrierte und aktivierte Nutzer sichtbar. Klicke hier um dich zu registrieren.] | [Links sind nur für registrierte und aktivierte Nutzer sichtbar. Klicke hier um dich zu registrieren.] | >[Links sind nur für registrierte und aktivierte Nutzer sichtbar. Klicke hier um dich zu registrieren.]<
    [Links sind nur für registrierte und aktivierte Nutzer sichtbar. Klicke hier um dich zu registrieren.]

  2. 8 Benutzer sagen Danke:

    Akio (9. December 2015),Arekusu (14. December 2015),Cande (24. August 2015),HandDerGerechtigkeit (11. September 2015),midnighter (19. May 2015),prinzvegeta (2. September 2015),tigerhai (4. December 2015),Tzi (17. May 2015)

  3. #2
    United we Stand Avatar von 00Ryuji00
    Registriert seit
    Oct 2012
    Beiträge
    3.902
    Punkte
    100.019
    Errungenschaften:
    TomodachisGang LeaderHikikomoriTagger Amateur50000 Erfahrungspunkte

    AW: Giant Robo OVA + Gaiden Ginrei Special [Jap-Dub][Ger-Sub][480p][1080p][DVDRip][BluRay]

    Reupload erledigt ~
    !!!Alle Anliegen bezüglich Uploads werden nur mit direktem Threadlink zum Angebot bearbeitet!!!

    Re-Uploadanfragen nur per PN - Ihr könnt mir auch Listen schicken

    Re-Uploads erfolgen meist innerhalb 24h, kann aber auch bis zu 7 Tage dauern

    [Links sind nur für registrierte und aktivierte Nutzer sichtbar. Klicke hier um dich zu registrieren.] | [Links sind nur für registrierte und aktivierte Nutzer sichtbar. Klicke hier um dich zu registrieren.] | >[Links sind nur für registrierte und aktivierte Nutzer sichtbar. Klicke hier um dich zu registrieren.]<
    [Links sind nur für registrierte und aktivierte Nutzer sichtbar. Klicke hier um dich zu registrieren.]

Lesezeichen

Berechtigungen

  • Neue Themen erstellen: Nein
  • Themen beantworten: Nein
  • Anhänge hochladen: Nein
  • Beiträge bearbeiten: Nein
  •  

1 2 3 4 5 6 7 8 9 10 11 12 13 14 15 16 17 18 19 20 21 22 23 24 25 26 27 28 29 30 31 32 33 34 35 36 37 38 39 40 41 42 43 44 45 46 47 48 49 50 51 52 53 54 55 56 57 58 59 60 61 62 63 64 65 66 67 68 69 70 71 72 73 74 75 76 77 78 79 80 81 82 83 84 85 86 87 88 89 90 91 92 93 94 95 96 97 98 99 100 101 102 103 104 105 106 107 108 109 110 111 112 113 114 115 116 117 118 119 120 121 122 123 124 125 126 127 128 129 130 131 132 133 134 135 136 137 138 139 140 141 142 143 144 145 146 147 148 149 150 151 152 153 154 155 156 157 158