Ergebnis 1 bis 1 von 1

Thema: Gingitsune [Jap-Dub][Ger-Sub][720p][HDTV]-LS

Dieser Thread wurde noch nicht bewertet. Bewerte ihn doch, wenn er dir gefällt!
  1. #1
    United we Stand Avatar von 00Ryuji00
    Registriert seit
    Oct 2012
    Beiträge
    3.896
    Punkte
    99.519
    Errungenschaften:
    TomodachisGang LeaderHikikomoriTagger Amateur50000 Erfahrungspunkte

    Gingitsune [Jap-Dub][Ger-Sub][720p][HDTV]-LS


    Gingitsune
    ぎんぎつね
    Gingitsune: Messenger Fox of the Gods






    Kurzbeschreibung:
    Zitat Zitat von AniSearch.com
    Seit der Edo-Zeit verwaltet und beschützt die Familie von Makoto Saeki einen kleinen Inari-Tempel. Immer nur ein Mitglied der Familie verfügt dabei über die Fähigkeit Gintaro, den Kitsune bzw. Fuchsgeist des Schreins zu sehen und mit ihm zu kommunizieren. Als nun Makotos Mutter starb, ging diese Kraft auf Makoto über und es liegt nun an ihr gemeinsam mit Gintaro und seinen Kräften den Leuten ihrer Gemeinschaft zu helfen und ihre Probleme zu lösen, wenn das auch nicht ganz ohne Differenzen zwischen den ungleichen Partnern abläuft.


    Spieldauer: 24min
    Genre: Alltagsdrama
    Nebengenres: Alltagsleben, Drama, Komödie
    Jahr: 2013
    Sprache: Japanisch
    Untertitel: Deutsch
    Größe pro Folge: ~339 MiB
    Episodenanzahl: 12/12
    Format: MP4
    Auflösung: 720p (16:9)
    Videocodec: x264 (AVC)
    Audiocodec: AAC
    Releasegruppe: L-S
    Hoster: Share-Online, Uploaded


    MediaInfo
    Code:
    
    Format                                   : MPEG-4
    Format profile                           : Base Media
    Codec ID                                 : isom
    File size                                : 339 MiB
    Duration                                 : 24mn 24s
    Overall bit rate mode                    : Variable
    Overall bit rate                         : 1 941 Kbps
    Encoded date                             : UTC 2014-03-09 19:04:57
    Tagged date                              : UTC 2014-03-09 19:04:57
    
    Video
    ID                                       : 1
    Format                                   : AVC
    Format/Info                              : Advanced Video Codec
    Format profile                           : [email protected]
    Format settings, CABAC                   : Yes
    Format settings, ReFrames                : 5 frames
    Codec ID                                 : avc1
    Codec ID/Info                            : Advanced Video Coding
    Duration                                 : 24mn 24s
    Bit rate                                 : 1 786 Kbps
    Maximum bit rate                         : 8 486 Kbps
    Width                                    : 1 280 pixels
    Height                                   : 720 pixels
    Display aspect ratio                     : 16:9
    Frame rate mode                          : Constant
    Frame rate                               : 23.976 fps
    Color space                              : YUV
    Chroma subsampling                       : 4:2:0
    Bit depth                                : 8 bits
    Scan type                                : Progressive
    Bits/(Pixel*Frame)                       : 0.081
    Stream size                              : 312 MiB (92%)
    Writing library                          : x264 core 138 r2358 9e941d1
    Encoding settings                        : cabac=1 / ref=5 / deblock=1:1:1 / analyse=0x3:0x113 / me=umh / subme=10 / psy=1 / psy_rd=0.00:0.00 / mixed_ref=0 / me_range=32 / chroma_me=1 / trellis=2 / 8x8dct=1 / cqm=0 / deadzone=21,11 / fast_pskip=0 / chroma_qp_offset=0 / threads=3 / lookahead_threads=1 / sliced_threads=0 / nr=0 / decimate=1 / interlaced=0 / bluray_compat=0 / constrained_intra=0 / bframes=5 / b_pyramid=2 / b_adapt=2 / b_bias=0 / direct=3 / weightb=1 / open_gop=0 / weightp=2 / keyint=240 / keyint_min=23 / scenecut=40 / intra_refresh=0 / rc_lookahead=40 / rc=crf / mbtree=1 / crf=16.0 / qcomp=0.60 / qpmin=10 / qpmax=69 / qpstep=4 / vbv_maxrate=240000 / vbv_bufsize=240000 / crf_max=0.0 / nal_hrd=none / ip_ratio=1.40 / aq=1:0.60
    Encoded date                             : UTC 2014-03-09 19:04:57
    Tagged date                              : UTC 2014-03-09 19:05:59
    
    Audio
    ID                                       : 2
    Format                                   : AAC
    Format/Info                              : Advanced Audio Codec
    Format profile                           : LC
    Codec ID                                 : 40
    Duration                                 : 24mn 24s
    Bit rate mode                            : Variable
    Bit rate                                 : 151 Kbps
    Maximum bit rate                         : 191 Kbps
    Channel(s)                               : 2 channels
    Channel positions                        : Front: L R
    Sampling rate                            : 44.1 KHz
    Compression mode                         : Lossy
    Stream size                              : 26.4 MiB (8%)
    Encoded date                             : UTC 2014-03-09 17:31:29
    Tagged date                              : UTC 2014-03-09 19:05:59
    
    





    Geschützter Bereich - Bedanke dich beim Poster, um den Bereich sehen zu können
    Hier erfährst Du wie Du Dich bedanken kannst oder werde jetzt Premium Mitglied ab einer Spende von 5€ und erhalte sofortigen Zugriff auf den Downloadbereich!


    [Links sind nur für registrierte und aktivierte Nutzer sichtbar. Klicke hier um dich zu registrieren.]
    !!!Alle Anliegen bezüglich Uploads werden nur mit direktem Threadlink zum Angebot bearbeitet!!!

    Re-Uploadanfragen nur per PN - Ihr könnt mir auch Listen schicken

    Re-Uploads erfolgen meist innerhalb 24h, kann aber auch bis zu 7 Tage dauern

    [Links sind nur für registrierte und aktivierte Nutzer sichtbar. Klicke hier um dich zu registrieren.] | [Links sind nur für registrierte und aktivierte Nutzer sichtbar. Klicke hier um dich zu registrieren.] | >[Links sind nur für registrierte und aktivierte Nutzer sichtbar. Klicke hier um dich zu registrieren.]<
    [Links sind nur für registrierte und aktivierte Nutzer sichtbar. Klicke hier um dich zu registrieren.]

  2. 4 Benutzer sagen Danke:

    Arekusu (27. April 2016),Asuka Langley (19. April 2016),Kokujou (12. April 2016),Sandy7580 (12. April 2016)

Lesezeichen

Berechtigungen

  • Neue Themen erstellen: Nein
  • Themen beantworten: Nein
  • Anhänge hochladen: Nein
  • Beiträge bearbeiten: Nein
  •  

1 2 3 4 5 6 7 8 9 10 11 12 13 14 15 16 17 18 19 20 21 22 23 24 25 26 27 28 29 30 31 32 33 34 35 36 37 38 39 40 41 42 43 44 45 46 47 48 49 50 51 52 53 54 55 56 57 58 59 60 61 62 63 64 65 66 67 68 69 70 71 72 73 74 75 76 77 78 79 80 81 82 83 84 85 86 87 88 89 90 91 92 93 94 95 96 97 98 99 100 101 102 103 104 105 106 107 108 109 110 111 112 113 114 115 116 117 118 119 120 121 122 123 124 125 126 127 128 129 130 131 132 133 134 135 136 137 138 139 140 141 142 143 144 145 146 147 148 149 150 151 152 153 154 155 156 157 158