Ergebnis 1 bis 1 von 1

Thema: Girls Bravo: Second Season (S2) [Jap-Dub][Ger-Sub][480p][DVDRip]-Melon-Subs

Dieser Thread wurde noch nicht bewertet. Bewerte ihn doch, wenn er dir gefällt!
  1. #1
    United we Stand Avatar von 00Ryuji00
    Registriert seit
    Oct 2012
    Beiträge
    3.899
    Punkte
    99.771
    Errungenschaften:
    TomodachisGang LeaderHikikomoriTagger Amateur50000 Erfahrungspunkte

    Girls Bravo: Second Season (S2) [Jap-Dub][Ger-Sub][480p][DVDRip]-Melon-Subs


    Girls Bravo: Second Season
    Girls ブラボー Second Season
    Girls Bravo 2






    Kurzbeschreibung:
    Zitat Zitat von AniSearch.com
    Der für sein Alter zu kleine Yukinari wurde seit jeher von Mädchen missachtet und unterdrückt. Seitdem er in der Highschool ist, hat er etwas sehr Eigenartiges an sich festgestellt: Sobald ein Mädchen ihn berührt oder sich ihm auch nur nähert, bekommt er Ausschlag! Die Verwunderung, als er eines Tages in Seiren, einer Welt, die fast nur von Frauen bevölkert wird, landet, ist groß. Zum Glück findet er dort eine neue Freundin, Miharu-Chan, deren Berührung seltsamerweise keine Reaktion seiner Allergie auslöst...


    Spieldauer: 24min
    Genre: Komödie
    Nebengenres: Ecchi, Fantasy, Harem, Komödie, Männlich, Romanze
    Jahr: 2005
    Sprache: Japanisch
    Untertitel: Deutsch
    Größe pro Folge: ~252 MiB
    Episodenanzahl: 13/13
    Format: AVI
    Auflösung: 480p (4:3)
    Videocodec: XviD (MPEG-4 Visual)
    Audiocodec: MPEG Audio
    Releasegruppe: Melon-Subs
    Hoster: Share-Online, Uploaded


    MediaInfo
    Code:
    
    Format                                   : AVI
    Format/Info                              : Audio Video Interleave
    Format profile                           : OpenDML
    Format settings                          : rec
    File size                                : 252 MiB
    Duration                                 : 23mn 36s
    Overall bit rate mode                    : Variable
    Overall bit rate                         : 1 490 Kbps
    Writing application                      : AVI-Mux GUI 1.17.7, Aug  8 2006  20:59:17
    
    Video
    ID                                       : 0
    Format                                   : MPEG-4 Visual
    Format profile                           : Advanced [email protected]
    Format settings, BVOP                    : 1
    Format settings, QPel                    : No
    Format settings, GMC                     : No warppoints
    Format settings, Matrix                  : Default (H.263)
    Muxing mode                              : Packed bitstream
    Codec ID                                 : XVID
    Codec ID/Hint                            : XviD
    Duration                                 : 23mn 36s
    Bit rate                                 : 1 365 Kbps
    Width                                    : 640 pixels
    Height                                   : 480 pixels
    Display aspect ratio                     : 4:3
    Frame rate                               : 23.976 fps
    Color space                              : YUV
    Chroma subsampling                       : 4:2:0
    Bit depth                                : 8 bits
    Scan type                                : Progressive
    Compression mode                         : Lossy
    Bits/(Pixel*Frame)                       : 0.185
    Stream size                              : 231 MiB (92%)
    Writing library                          : XviD 1.2.1 (UTC 2008-12-04)
    
    Audio
    ID                                       : 1
    Format                                   : MPEG Audio
    Format version                           : Version 1
    Format profile                           : Layer 3
    Mode                                     : Joint stereo
    Mode extension                           : MS Stereo
    Codec ID                                 : 55
    Codec ID/Hint                            : MP3
    Duration                                 : 23mn 36s
    Bit rate mode                            : Variable
    Bit rate                                 : 116 Kbps
    Nominal bit rate                         : 128 Kbps
    Channel(s)                               : 2 channels
    Sampling rate                            : 48.0 KHz
    Compression mode                         : Lossy
    Stream size                              : 19.6 MiB (8%)
    Alignment                                : Aligned on interleaves
    Interleave, duration                     : 24 ms (0.58 video frame)
    Interleave, preload duration             : 208 ms
    Title                                    : gbss01
    Writing library                          : LAME3.98r
    Encoding settings                        : -m j -V 4 -q 2 -lowpass 17 --abr 128
    
    






    Geschützter Bereich - Bedanke dich beim Poster, um den Bereich sehen zu können
    Hier erfährst Du wie Du Dich bedanken kannst oder werde jetzt Premium Mitglied ab einer Spende von 5€ und erhalte sofortigen Zugriff auf den Downloadbereich!



    [Links sind nur für registrierte und aktivierte Nutzer sichtbar. Klicke hier um dich zu registrieren.]
    Geändert von so1k (12. October 2016 um 20:12 Uhr)
    !!!Alle Anliegen bezüglich Uploads werden nur mit direktem Threadlink zum Angebot bearbeitet!!!

    Re-Uploadanfragen nur per PN - Ihr könnt mir auch Listen schicken

    Re-Uploads erfolgen meist innerhalb 24h, kann aber auch bis zu 7 Tage dauern

    [Links sind nur für registrierte und aktivierte Nutzer sichtbar. Klicke hier um dich zu registrieren.] | [Links sind nur für registrierte und aktivierte Nutzer sichtbar. Klicke hier um dich zu registrieren.] | >[Links sind nur für registrierte und aktivierte Nutzer sichtbar. Klicke hier um dich zu registrieren.]<
    [Links sind nur für registrierte und aktivierte Nutzer sichtbar. Klicke hier um dich zu registrieren.]

  2. 5 Benutzer sagen Danke:

    Akio (24. December 2015),heikobaer (15. December 2015),HerzogZepar (14. January 2016),midnighter (23. December 2015),prinzvegeta (5. January 2016)

Lesezeichen

Berechtigungen

  • Neue Themen erstellen: Nein
  • Themen beantworten: Nein
  • Anhänge hochladen: Nein
  • Beiträge bearbeiten: Nein
  •  

1 2 3 4 5 6 7 8 9 10 11 12 13 14 15 16 17 18 19 20 21 22 23 24 25 26 27 28 29 30 31 32 33 34 35 36 37 38 39 40 41 42 43 44 45 46 47 48 49 50 51 52 53 54 55 56 57 58 59 60 61 62 63 64 65 66 67 68 69 70 71 72 73 74 75 76 77 78 79 80 81 82 83 84 85 86 87 88 89 90 91 92 93 94 95 96 97 98 99 100 101 102 103 104 105 106 107 108 109 110 111 112 113 114 115 116 117 118 119 120 121 122 123 124 125 126 127 128 129 130 131 132 133 134 135 136 137 138 139 140 141 142 143 144 145 146 147 148 149 150 151 152 153 154 155 156 157 158