Ergebnis 1 bis 1 von 1

Thema: Go! Princess Precure [Jap-Dub][Ger-Sub][720p][HDTV]-MGS

Dieser Thread wurde noch nicht bewertet. Bewerte ihn doch, wenn er dir gefällt!
  1. #1
    United we Stand Avatar von 00Ryuji00
    Registriert seit
    Oct 2012
    Beiträge
    3.902
    Punkte
    99.938
    Errungenschaften:
    TomodachisGang LeaderHikikomoriTagger Amateur50000 Erfahrungspunkte

    Go! Princess Precure [Jap-Dub][Ger-Sub][720p][HDTV]-MGS


    Go! Princess Precure






    Kurzbeschreibung:
    Zitat Zitat von AniSearch.com
    Vor langer Zeit traf Haruno Haruka*auf einen eigenartigen Jungen namens Kanata, der ihr einen seltsamen Schlüssel gab und versprach, dass sie niemals ihre Träume aufgeben wird. Es vergingen ein paar Jahre und Haruka ist nun 13 Jahre alt und besucht die Noble Akademie, ein Internat für Mädchen. Was sie nie verloren hat ist allerdings ihr Wunsch eine Prinzessin, wie in ihren geliebten Bilderbüchern, zu werden. Eines Tages trifft sie auf zwei Feen aus dem Hope Königreich, Pafu und Aroma. Die beiden werden von merkwürdigen Monstern verfolgt, die von einer Hexe erschaffen wurden, die Träume in Alpträume verwandelt und sie dann hinter dem Tor der Verzweiflung wegsperrt. In ihrer Not geben die Feen Haruka ein Prinzessinenparfum, das sie in Cure Flora verwandelt, so dass sie sich der Hexe in den Weg stellen kann. Gemeinsam mit den danach hinzustoßenden Cure Mermaid und Cure Twinkle sammelt sie Dress-Up Schlüssel,*um das Tor der Träume zu öffnen und damit die Träume der Leute zu bewahren.


    Spieldauer: 25min
    Genre: Action
    Nebengenres: Action, Fantasy, Magical Girl
    Jahr: 2015
    Sprache: Japanisch
    Untertitel: Deutsch
    Größe pro Folge: ~245 MiB
    Episodenanzahl: 50 /50
    Format: MP4
    Auflösung: 720p (16:9)
    Videocodec: x264 (AVC)
    Audiocodec: AAC
    Releasegruppe: MGS
    Hoster: Share-Online, Uploaded


    MediaInfo
    Code:
    
    Format                                   : MPEG-4
    Format profile                           : Base Media
    Codec ID                                 : isom
    File size                                : 245 MiB
    Duration                                 : 24mn 5s
    Overall bit rate mode                    : Variable
    Overall bit rate                         : 1 422 Kbps
    Encoded date                             : UTC 2015-02-07 12:02:56
    Tagged date                              : UTC 2015-02-07 12:02:56
    
    Video
    ID                                       : 1
    Format                                   : AVC
    Format/Info                              : Advanced Video Codec
    Format profile                           : [email protected]
    Format settings, CABAC                   : Yes
    Format settings, ReFrames                : 4 frames
    Codec ID                                 : avc1
    Codec ID/Info                            : Advanced Video Coding
    Duration                                 : 24mn 4s
    Bit rate                                 : 1 291 Kbps
    Maximum bit rate                         : 9 722 Kbps
    Width                                    : 1 280 pixels
    Height                                   : 720 pixels
    Display aspect ratio                     : 16:9
    Frame rate mode                          : Constant
    Frame rate                               : 23.976 fps
    Color space                              : YUV
    Chroma subsampling                       : 4:2:0
    Bit depth                                : 8 bits
    Scan type                                : Progressive
    Bits/(Pixel*Frame)                       : 0.058
    Stream size                              : 222 MiB (91%)
    Writing library                          : x264 core 142 r2431 ac76440
    Encoding settings                        : cabac=1 / ref=3 / deblock=0:0:0 / analyse=0x3:0x133 / me=umh / subme=6 / psy=1 / psy_rd=1.00:0.00 / mixed_ref=1 / me_range=16 / chroma_me=1 / trellis=1 / 8x8dct=1 / cqm=0 / deadzone=21,11 / fast_pskip=1 / chroma_qp_offset=-4 / threads=6 / lookahead_threads=1 / sliced_threads=0 / nr=0 / decimate=1 / interlaced=0 / bluray_compat=0 / constrained_intra=0 / bframes=3 / b_pyramid=2 / b_adapt=2 / b_bias=0 / direct=3 / weightb=1 / open_gop=0 / weightp=2 / keyint=240 / keyint_min=23 / scenecut=40 / intra_refresh=0 / rc_lookahead=40 / rc=2pass / mbtree=1 / bitrate=1291 / ratetol=1.0 / qcomp=0.60 / qpmin=10 / qpmax=51 / qpstep=4 / cplxblur=20.0 / qblur=0.5 / ip_ratio=1.40 / aq=1:0.00
    Encoded date                             : UTC 2015-02-07 11:49:49
    Tagged date                              : UTC 2015-02-07 12:02:57
    
    Audio
    ID                                       : 2
    Format                                   : AAC
    Format/Info                              : Advanced Audio Codec
    Format profile                           : HE-AAC / LC
    Codec ID                                 : 40
    Duration                                 : 24mn 5s
    Bit rate mode                            : Variable
    Bit rate                                 : 128 Kbps
    Maximum bit rate                         : 164 Kbps
    Channel(s)                               : 2 channels
    Channel positions                        : Front: L R
    Sampling rate                            : 48.0 KHz / 24.0 KHz
    Compression mode                         : Lossy
    Stream size                              : 22.0 MiB (9%)
    Encoded date                             : UTC 2015-02-01 11:53:30
    Tagged date                              : UTC 2015-02-07 12:02:57
    
    





    Geschützter Bereich - Bedanke dich beim Poster, um den Bereich sehen zu können
    Hier erfährst Du wie Du Dich bedanken kannst oder werde jetzt Premium Mitglied ab einer Spende von 5€ und erhalte sofortigen Zugriff auf den Downloadbereich!


    [Links sind nur für registrierte und aktivierte Nutzer sichtbar. Klicke hier um dich zu registrieren.]
    !!!Alle Anliegen bezüglich Uploads werden nur mit direktem Threadlink zum Angebot bearbeitet!!!

    Re-Uploadanfragen nur per PN - Ihr könnt mir auch Listen schicken

    Re-Uploads erfolgen meist innerhalb 24h, kann aber auch bis zu 7 Tage dauern

    [Links sind nur für registrierte und aktivierte Nutzer sichtbar. Klicke hier um dich zu registrieren.] | [Links sind nur für registrierte und aktivierte Nutzer sichtbar. Klicke hier um dich zu registrieren.] | >[Links sind nur für registrierte und aktivierte Nutzer sichtbar. Klicke hier um dich zu registrieren.]<
    [Links sind nur für registrierte und aktivierte Nutzer sichtbar. Klicke hier um dich zu registrieren.]

  2. 2 Benutzer sagen Danke:

    midnighter (21. March 2016),Sandy7580 (27. February 2016)

Lesezeichen

Berechtigungen

  • Neue Themen erstellen: Nein
  • Themen beantworten: Nein
  • Anhänge hochladen: Nein
  • Beiträge bearbeiten: Nein
  •  

1 2 3 4 5 6 7 8 9 10 11 12 13 14 15 16 17 18 19 20 21 22 23 24 25 26 27 28 29 30 31 32 33 34 35 36 37 38 39 40 41 42 43 44 45 46 47 48 49 50 51 52 53 54 55 56 57 58 59 60 61 62 63 64 65 66 67 68 69 70 71 72 73 74 75 76 77 78 79 80 81 82 83 84 85 86 87 88 89 90 91 92 93 94 95 96 97 98 99 100 101 102 103 104 105 106 107 108 109 110 111 112 113 114 115 116 117 118 119 120 121 122 123 124 125 126 127 128 129 130 131 132 133 134 135 136 137 138 139 140 141 142 143 144 145 146 147 148 149 150 151 152 153 154 155 156 157 158