Ergebnis 1 bis 2 von 2

Thema: Goshuushou-sama Ninomiya-kun [Jap-Dub][Ger-Sub][578p][DVDRip]

Dieser Thread wurde noch nicht bewertet. Bewerte ihn doch, wenn er dir gefällt!
  1. #1
    United we Stand Avatar von 00Ryuji00
    Registriert seit
    Oct 2012
    Beiträge
    3.902
    Punkte
    100.220
    Errungenschaften:
    TomodachisGang LeaderHikikomoriTagger Amateur50000 Erfahrungspunkte

    Goshuushou-sama Ninomiya-kun [Jap-Dub][Ger-Sub][578p][DVDRip]

    Goshuushou-sama Ninomiya-kun
    Good Luck! Ninomiya-kun
    Goshuchou-sama Ninomiya-kun, Gosyusho Sama Ninomiya Kun
    My Heartfelt Sympathy, Ninomiya-kun




    Kurzbeschreibung:
    Dank seiner Schwester ergibt es sich irgendwie, dass der Hauptcharakter Shungo mit einem Incubus und einer Succubus zusammenlebt. Seltsamerweise hat das Succubus Mädchen Mayu Androphobie, Angst vor Männern, und so wird von ihrem Bruder, einem Incubus, und der Schwester beschlossen, dass sie fortan jede freie Minute mit Shungo verbringen soll, damit sie ihre Angst überwindet, das schließt auch das Schlafen im selben Bett mit ein. Letztendlich landet die reiche und beliebte Vorsitzende des Schulrates, Reika, in seinem Haus als Live-in Maid.

    Zudem hat Mayu einen Traum: Sie will mit dem Mann, in den sie sich verliebt, bis an ihr Lebensende zusammenleben, was aber ein ziemlich unmögliches Unterfangen sein dürfte, da Succubus bekannterweise per Kuss dem männlichen Geschlecht die Lebensenergie entziehen.


    Sprache: Japanisch
    Untertitel: Deutsch
    Episodenanzahl: 12/12
    Format: .avi
    Auflösung: 578p (16:9)
    Codec: x264
    Gruppe: C-Subs
    Hoster: Share-Online ; Uploaded


    Datei Info:
    Spoiler

    Code:
    
    
    Format                                   : AVI
    Format/Info                              : Audio Video Interleave
    Format profile                           : OpenDML
    Format settings                          : rec
    File size                                : 201 MiB
    Duration                                 : 24mn 45s
    Overall bit rate                         : 1 138 Kbps
    Writing application                      : AVI-Mux GUI 1.17.7, Aug  8 2006  20:59:17
    
    Video
    ID                                       : 0
    Format                                   : AVC
    Format/Info                              : Advanced Video Codec
    Format profile                           : [email protected]
    Format settings, CABAC                   : Yes
    Format settings, ReFrames                : 8 frames
    Codec ID                                 : h264
    Duration                                 : 24mn 44s
    Bit rate                                 : 1 006 Kbps
    Width                                    : 1 024 pixels
    Height                                   : 578 pixels
    Display aspect ratio                     : 16:9
    Frame rate                               : 24.000 fps
    Color space                              : YUV
    Chroma subsampling                       : 4:2:0
    Bit depth                                : 8 bits
    Scan type                                : Progressive
    Bits/(Pixel*Frame)                       : 0.071
    Stream size                              : 178 MiB (88%)
    Writing library                          : x264 core 59 r808M ff5059a
    Encoding settings                        : cabac=1 / ref=8 / deblock=1:1:1 / analyse=0x3:0x113 / me=umh / subme=6 / me-prepass=0 / brdo=1 / mixed_ref=1 / me_range=12 / chroma_me=1 / trellis=1 / 8x8dct=1 / cqm=0 / deadzone=21,11 / chroma_qp_offset=0 / threads=3 / nr=0 / decimate=1 / mbaff=0 / bframes=16 / b_pyramid=1 / b_adapt=1 / b_bias=0 / direct=3 / wpredb=1 / bime=1 / keyint=250 / keyint_min=25 / scenecut=40(pre) / rc=2pass / bitrate=1006 / ratetol=1.0 / rceq='blurCplx^(1-qComp)' / qcomp=1.00 / qpmin=10 / qpmax=51 / qpstep=4 / cplxblur=20.0 / qblur=0.5 / ip_ratio=1.40 / pb_ratio=1.30 / aq=2:1.00
    
    Audio
    ID                                       : 1
    Format                                   : MPEG Audio
    Format version                           : Version 1
    Format profile                           : Layer 3
    Mode                                     : Joint stereo
    Mode extension                           : MS Stereo
    Codec ID                                 : 55
    Codec ID/Hint                            : MP3
    Duration                                 : 24mn 45s
    Bit rate mode                            : Constant
    Bit rate                                 : 128 Kbps
    Channel count                            : 2 channels
    Sampling rate                            : 48.0 KHz
    Compression mode                         : Lossy
    Stream size                              : 22.7 MiB (11%)
    Alignment                                : Aligned on interleaves
    Interleave, duration                     : 665 ms (15.97 video frames)
    Interleave, preload duration             : 216 ms
    Title                                    : test
    Writing library                          : LAME3.98a
    Encoding settings                        : -m j -V 4 -q 2 -lowpass 17 -b 128
    
    






    Geschützter Bereich - Bedanke dich beim Poster, um den Bereich sehen zu können
    Hier erfährst Du wie Du Dich bedanken kannst oder werde jetzt Premium Mitglied ab einer Spende von 5€ und erhalte sofortigen Zugriff auf den Downloadbereich!

    !!!Alle Anliegen bezüglich Uploads werden nur mit direktem Threadlink zum Angebot bearbeitet!!!

    Re-Uploadanfragen nur per PN - Ihr könnt mir auch Listen schicken

    Re-Uploads folgen nach Anfrage meist am Wochenende

    [Links sind nur für registrierte und aktivierte Nutzer sichtbar. Klicke hier um dich zu registrieren.] | [Links sind nur für registrierte und aktivierte Nutzer sichtbar. Klicke hier um dich zu registrieren.] | >[Links sind nur für registrierte und aktivierte Nutzer sichtbar. Klicke hier um dich zu registrieren.]<
    [Links sind nur für registrierte und aktivierte Nutzer sichtbar. Klicke hier um dich zu registrieren.]

  2. 14 Benutzer sagen Danke:

    Akio (18. October 2015),Androkai (16. August 2015),animesoulx3 (20. January 2016),dzeko (30. November 2016),eraz (31. July 2015),Ignasum (31. July 2015),Kazukyy (25. November 2015),McZeRo (22. April 2016),midnighter (1. August 2015),Nanatzusaya (31. July 2015),prinzvegeta (10. August 2015),shorteh (12. November 2016),SONNYxq (31. July 2015),ZeroCM89 (8. August 2016)

  3. #2
    United we Stand Avatar von 00Ryuji00
    Registriert seit
    Oct 2012
    Beiträge
    3.902
    Punkte
    100.220
    Errungenschaften:
    TomodachisGang LeaderHikikomoriTagger Amateur50000 Erfahrungspunkte

    AW: Goshuushou-sama Ninomiya-kun [Jap-Dub][Ger-Sub][578p][DVDRip]

    Update: Dateien auf Wunsch wieder online.
    !!!Alle Anliegen bezüglich Uploads werden nur mit direktem Threadlink zum Angebot bearbeitet!!!

    Re-Uploadanfragen nur per PN - Ihr könnt mir auch Listen schicken

    Re-Uploads folgen nach Anfrage meist am Wochenende

    [Links sind nur für registrierte und aktivierte Nutzer sichtbar. Klicke hier um dich zu registrieren.] | [Links sind nur für registrierte und aktivierte Nutzer sichtbar. Klicke hier um dich zu registrieren.] | >[Links sind nur für registrierte und aktivierte Nutzer sichtbar. Klicke hier um dich zu registrieren.]<
    [Links sind nur für registrierte und aktivierte Nutzer sichtbar. Klicke hier um dich zu registrieren.]

Lesezeichen

Berechtigungen

  • Neue Themen erstellen: Nein
  • Themen beantworten: Nein
  • Anhänge hochladen: Nein
  • Beiträge bearbeiten: Nein
  •  

1 2 3 4 5 6 7 8 9 10 11 12 13 14 15 16 17 18 19 20 21 22 23 24 25 26 27 28 29 30 31 32 33 34 35 36 37 38 39 40 41 42 43 44 45 46 47 48 49 50 51 52 53 54 55 56 57 58 59 60 61 62 63 64 65 66 67 68 69 70 71 72 73 74 75 76 77 78 79 80 81 82 83 84 85 86 87 88 89 90 91 92 93 94 95 96 97 98 99 100 101 102 103 104 105 106 107 108 109 110 111 112 113 114 115 116 117 118 119 120 121 122 123 124 125 126 127 128 129 130 131 132 133 134 135 136 137 138 139 140 141 142 143 144 145 146 147 148 149 150 151 152 153 154 155 156 157 158