Ergebnis 1 bis 1 von 1

Thema: Gosick [Jap-Dub][Ger-Sub][720p][HDTV]-Morai

Dieser Thread wurde noch nicht bewertet. Bewerte ihn doch, wenn er dir gefällt!
  1. #1
    United we Stand Avatar von 00Ryuji00
    Registriert seit
    Oct 2012
    Beiträge
    3.902
    Punkte
    100.092
    Errungenschaften:
    TomodachisGang LeaderHikikomoriTagger Amateur50000 Erfahrungspunkte

    Gosick [Jap-Dub][Ger-Sub][720p][HDTV]-Morai


    Gosick
    ゴシック






    Kurzbeschreibung:
    Zitat Zitat von AniSearch.com
    Covertext:
    Königreich Sovurien, 1924. Kazuya hat es aufgrund seines fremdartigen Äußeren nicht leicht auf dem vornehmen Internat St. Margueritte. Seine einzige Verbündete lebt zurückgezogen im Gewölbe der Bibliothek: Die geheimnisvolle Victorique ist so scharfsinnig, dass sie sogar für den ortsansässigen Kommissar komplizierte Fälle löst. Eines Tages wird eine Wahrsagerin ermordet. Die Ermittlungen führen Victorique und Kazuya auf die »Queen Berry« - ein Schiff, das eigentlich schon vor zehn Jahren gesunken ist und das ein Rätsel um verschwundene Kinder mit in die Tiefen der See genommen hat ...


    Spieldauer: 24min
    Genre: Krimi
    Nebengenres: Drama, Krimi, Mystery, Männlich, Romanze, Weiblich
    Jahr: 2010
    Sprache: Japanisch
    Untertitel: Deutsch
    Größe pro Folge: ~364 MiB
    Episodenanzahl: 24/24
    Format: MP4
    Auflösung: 720p (16:9)
    Videocodec: x264 (AVC)
    Audiocodec: AAC
    Releasegruppe: Morai-Subs
    Hoster: Share-Online, Uploaded


    MediaInfo
    Code:
    
    Format                                   : MPEG-4
    Format profile                           : Base Media
    Codec ID                                 : isom
    File size                                : 364 MiB
    Duration                                 : 24mn 39s
    Overall bit rate mode                    : Variable
    Overall bit rate                         : 2 061 Kbps
    Encoded date                             : UTC 2011-01-16 17:20:21
    Tagged date                              : UTC 2011-01-16 17:20:21
    
    Video
    ID                                       : 1
    Format                                   : AVC
    Format/Info                              : Advanced Video Codec
    Format profile                           : [email protected]
    Format settings, CABAC                   : Yes
    Format settings, ReFrames                : 4 frames
    Codec ID                                 : avc1
    Codec ID/Info                            : Advanced Video Coding
    Duration                                 : 24mn 39s
    Bit rate                                 : 1 974 Kbps
    Maximum bit rate                         : 13.4 Mbps
    Width                                    : 1 280 pixels
    Height                                   : 720 pixels
    Display aspect ratio                     : 16:9
    Frame rate mode                          : Constant
    Frame rate                               : 29.970 fps
    Color space                              : YUV
    Chroma subsampling                       : 4:2:0
    Bit depth                                : 8 bits
    Scan type                                : Progressive
    Bits/(Pixel*Frame)                       : 0.071
    Stream size                              : 348 MiB (96%)
    Title                                    : Video
    Writing library                          : x264 core 105 r1724 b02df7b
    Encoding settings                        : cabac=1 / ref=3 / deblock=1:1:1 / analyse=0x3:0x133 / me=umh / subme=10 / psy=1 / psy_rd=0.40:0.00 / mixed_ref=1 / me_range=24 / chroma_me=1 / trellis=2 / 8x8dct=1 / cqm=0 / deadzone=21,11 / fast_pskip=1 / chroma_qp_offset=-2 / threads=9 / sliced_threads=0 / nr=0 / decimate=1 / interlaced=0 / constrained_intra=0 / bframes=3 / b_pyramid=2 / b_adapt=2 / b_bias=0 / direct=3 / weightb=1 / open_gop=0 / weightp=2 / keyint=250 / keyint_min=25 / scenecut=40 / intra_refresh=0 / rc_lookahead=60 / rc=crf / mbtree=1 / crf=18.0 / qcomp=0.60 / qpmin=10 / qpmax=51 / qpstep=4 / vbv_maxrate=25000 / vbv_bufsize=25000 / crf_max=0.0 / ip_ratio=1.40 / aq=1:0.60 / nal_hrd=none
    Encoded date                             : UTC 2011-01-16 17:20:21
    Tagged date                              : UTC 2011-01-16 17:20:24
    
    Audio
    ID                                       : 2
    Format                                   : AAC
    Format/Info                              : Advanced Audio Codec
    Format profile                           : HE-AAC / LC
    Codec ID                                 : 40
    Duration                                 : 24mn 39s
    Bit rate mode                            : Variable
    Bit rate                                 : 84.0 Kbps
    Maximum bit rate                         : 98.5 Kbps
    Channel(s)                               : 2 channels
    Channel positions                        : Front: L R
    Sampling rate                            : 48.0 KHz / 24.0 KHz
    Compression mode                         : Lossy
    Stream size                              : 14.8 MiB (4%)
    Language                                 : Japanese
    Encoded date                             : UTC 2011-01-16 17:20:24
    Tagged date                              : UTC 2011-01-16 17:20:24
    
    





    Geschützter Bereich - Bedanke dich beim Poster, um den Bereich sehen zu können
    Hier erfährst Du wie Du Dich bedanken kannst oder werde jetzt Premium Mitglied ab einer Spende von 5€ und erhalte sofortigen Zugriff auf den Downloadbereich!



    [Links sind nur für registrierte und aktivierte Nutzer sichtbar. Klicke hier um dich zu registrieren.]
    Geändert von so1k (12. October 2016 um 20:36 Uhr)
    !!!Alle Anliegen bezüglich Uploads werden nur mit direktem Threadlink zum Angebot bearbeitet!!!

    Re-Uploadanfragen nur per PN - Ihr könnt mir auch Listen schicken

    Re-Uploads folgen nach Anfrage meist am Wochenende

    [Links sind nur für registrierte und aktivierte Nutzer sichtbar. Klicke hier um dich zu registrieren.] | [Links sind nur für registrierte und aktivierte Nutzer sichtbar. Klicke hier um dich zu registrieren.] | >[Links sind nur für registrierte und aktivierte Nutzer sichtbar. Klicke hier um dich zu registrieren.]<
    [Links sind nur für registrierte und aktivierte Nutzer sichtbar. Klicke hier um dich zu registrieren.]

  2. 7 Benutzer sagen Danke:

    Akio (3. April 2016),DivinRule (8. January 2016),eraz (10. January 2016),foiderbua (8. January 2016),midnighter (20. January 2016),Paraxamos (12. April 2016),Sandy7580 (24. February 2016)

Lesezeichen

Berechtigungen

  • Neue Themen erstellen: Nein
  • Themen beantworten: Nein
  • Anhänge hochladen: Nein
  • Beiträge bearbeiten: Nein
  •  

1 2 3 4 5 6 7 8 9 10 11 12 13 14 15 16 17 18 19 20 21 22 23 24 25 26 27 28 29 30 31 32 33 34 35 36 37 38 39 40 41 42 43 44 45 46 47 48 49 50 51 52 53 54 55 56 57 58 59 60 61 62 63 64 65 66 67 68 69 70 71 72 73 74 75 76 77 78 79 80 81 82 83 84 85 86 87 88 89 90 91 92 93 94 95 96 97 98 99 100 101 102 103 104 105 106 107 108 109 110 111 112 113 114 115 116 117 118 119 120 121 122 123 124 125 126 127 128 129 130 131 132 133 134 135 136 137 138 139 140 141 142 143 144 145 146 147 148 149 150 151 152 153 154 155 156 157 158