Ergebnis 1 bis 2 von 2

Thema: Gundam Build Fighters [Jap-Dub][Ger-Sub][720p][HDTV]

Dieser Thread wurde noch nicht bewertet. Bewerte ihn doch, wenn er dir gefällt!
  1. #1
    Gesperrt
    Registriert seit
    Oct 2013
    Ort
    Milchstraße
    Beiträge
    565
    Punkte
    10.833
    Errungenschaften:
    TomodachisGang LeaderTagger Profi10000 ErfahrungspunkteHikikomori

    Gundam Build Fighters [Jap-Dub][Ger-Sub][720p][HDTV]

    Gundam Build Fighters
    ガンダムビルドファイターズ


    [Links sind nur für registrierte und aktivierte Nutzer sichtbar. Klicke hier um dich zu registrieren.]


    Die Geschichte spielt in naher Zukunft, als GunPla Kämpfe, Wettkämpfe und der vergleich der verschiedenen Plastik Modele weltweit einen zweiten GunPla Boom auslösten. Der junge Iori Sei, Mittelschüler und der Sohn eines Modell Laden Besitzer zeigt Talent, wenn es um das bauen von den Plastik Modellen geht. Er ist ein wahrer meister wenn es um das bauen der Modelle geht, doch im Kampf zeigt er seine Schwächen. Doch er begegnet dem mysteriösen Reiji, der sich als exzellenter Gundam Kämpfer entpuppt. Zusammen streben sie nach dem Titel des GunPla Welt Champions.

    Genre: Abenteuer Action Mecha
    Episoden: 25/25
    Format: .mp4
    Resolution: 1280 x 720
    Sprache: Japanisch
    Untertitel: Deutsch
    Größe pro Folge: 300 MB
    Releaser: [L-S]
    Hoster: Share-Online.biz; Uploaded.net


    Spoiler
    Format : MPEG-4
    Länge : 317 MiB for 23min 0s 105ms

    Video #0
    Format : AVC
    Bitrate : 1 617 Kbps
    maximale Bitrate : 5 595 Kbps
    Auslösung : 1280 x 720; 23.976 fps


    Audio #0 :
    Format : AAC
    Infos : 2 Kanäle, 44,1 KHz
    Bitraten-Modus : variabel
    Bitrate : 221 Kbps
    maximale Bitrate : 227 Kbps
    Language : Japanisch


    Geschützter Bereich - Bedanke dich beim Poster, um den Bereich sehen zu können
    Hier erfährst Du wie Du Dich bedanken kannst oder werde jetzt Premium Mitglied ab einer Spende von 5€ und erhalte sofortigen Zugriff auf den Downloadbereich!

    Season2:
    [Links sind nur für registrierte und aktivierte Nutzer sichtbar. Klicke hier um dich zu registrieren.]
    Geändert von Infi (24. May 2016 um 04:49 Uhr)

  2. 37 Benutzer sagen Danke:

    Akulti (30. March 2015),Aluaran (30. March 2015),Antipott (30. March 2015),Arekusu (27. April 2016),Baschti1989 (8. October 2016),Bloodywaffe (23. November 2015),classius (10. May 2015),Demichi (26. May 2016),DJPAUL1990 (2. August 2015),FengShui (17. April 2016),hacime (30. March 2015),Hisamaki (6. June 2016),Jamaz (18. August 2015),Joshi120 (17. April 2015),Kitefist (9. September 2015),Makenshi (3. July 2015),marco.xf (9. April 2015),Max13493 (22. December 2015),midnighter (30. March 2015),onepiecefreak (7. May 2015),Onkelmolan (4. November 2015),Paulus (7. January 2016),prinzvegeta (23. October 2015),Scypher (19. May 2015),Skinsuite (1. April 2015),SnowCat (13. April 2015),soleil75 (25. June 2016),Stoneman (30. September 2015),Subroutine (20. April 2015),Sw33p (21. September 2015),thepromilekiler (1. April 2015),tokyodrift (29. September 2015),warsnail (17. January 2016),Wastl (13. September 2015),Zap (7. April 2015),ZeDeRom (6. February 2016),ZeroXG (25. April 2015)

  3. #2
    United we Stand Avatar von 00Ryuji00
    Registriert seit
    Oct 2012
    Beiträge
    3.902
    Punkte
    100.019
    Errungenschaften:
    TomodachisGang LeaderHikikomoriTagger Amateur50000 Erfahrungspunkte

    AW: Gundam Build Fighters [Jap-Dub][Ger-Sub][720p][HDTV]


    Gundam Build Fighters
    ガンダムビルドファイターズ






    Kurzbeschreibung:
    Zitat Zitat von AniSearch.com
    Der Traum des jungen Schülers und Gunpla-Entwicklers Sei Lori ist es, eines Tages der beste Kämpfer in einem Gunpla-Turnier zu werden und seinen Vater zu überflügeln. Er ist das Einzelkind einer Familie, die einen Gunpla-Shop besitzt und somit sehr gut informiert, durch seine schlechten Fähigkeiten als Pilot, ist er allerdings schon öfter in der ersten Runde eines Turniers ausgeschieden.
    Im Laufe der Geschichte trifft er auf Reiji, einen seltsamen Jungen, der ihm fortan bei dem Ausbau seiner Fähigkeiten zu Seite steht. Er schenkt Sei einen Juwel, zusammen mit dem Versprechen, dass er ihm helfen wird, wenn er sich das wünscht. Zusammen mit Seis angepasstem GAT-X105B Streik Gundam, gehen sie in das nächste Turnier, um mit den besten Gunpla-Kämpfern zu konkurrieren.


    Spieldauer: 24min
    Genre: Ganbatte
    Nebengenres: Action, Ganbatte, Komödie, Mecha, Scifi, Sport
    Jahr: 2013
    Sprache: Japanisch
    Untertitel: Deutsch
    Größe pro Folge: ~317 MiB
    Episodenanzahl: 25/25
    Format: MP4
    Auflösung: 720p (16:9)
    Videocodec: x264 (AVC)
    Audiocodec: AAC
    Releasegruppe: LS
    Hoster: Share-Online, Uploaded


    MediaInfo
    Code:
    
    Format                                   : MPEG-4
    Format profile                           : Base Media
    Codec ID                                 : isom
    File size                                : 317 MiB
    Duration                                 : 24mn 5s
    Overall bit rate mode                    : Variable
    Overall bit rate                         : 1 842 Kbps
    Encoded date                             : UTC 2014-12-24 23:57:58
    Tagged date                              : UTC 2014-12-24 23:57:58
    
    Video
    ID                                       : 1
    Format                                   : AVC
    Format/Info                              : Advanced Video Codec
    Format profile                           : [email protected]
    Format settings, CABAC                   : Yes
    Format settings, ReFrames                : 6 frames
    Codec ID                                 : avc1
    Codec ID/Info                            : Advanced Video Coding
    Duration                                 : 24mn 4s
    Bit rate                                 : 1 617 Kbps
    Maximum bit rate                         : 5 595 Kbps
    Width                                    : 1 280 pixels
    Height                                   : 720 pixels
    Display aspect ratio                     : 16:9
    Frame rate mode                          : Constant
    Frame rate                               : 23.976 fps
    Color space                              : YUV
    Chroma subsampling                       : 4:2:0
    Bit depth                                : 8 bits
    Scan type                                : Progressive
    Bits/(Pixel*Frame)                       : 0.073
    Stream size                              : 278 MiB (88%)
    Writing library                          : x264 core 142 r2431+42 c69a006 tMod [[email protected] X86_64]
    Encoding settings                        : cabac=1 / ref=6 / deblock=1:0:0 / analyse=0x3:0x133 / me=hex / subme=7 / psy=1 / fade_compensate=0.00 / psy_rd=1.00:0.00 / mixed_ref=1 / me_range=16 / chroma_me=1 / trellis=1 / 8x8dct=1 / cqm=0 / deadzone=21,11 / fast_pskip=1 / chroma_qp_offset=-2 / threads=12 / lookahead_threads=2 / sliced_threads=0 / nr=0 / decimate=0 / interlaced=0 / bluray_compat=0 / constrained_intra=0 / fgo=0 / bframes=4 / b_pyramid=2 / b_adapt=1 / b_bias=0 / direct=3 / weightb=1 / open_gop=0 / weightp=2 / keyint=250 / keyint_min=23 / scenecut=40 / intra_refresh=0 / rc_lookahead=40 / rc=crf / mbtree=1 / crf=18.0000 / qcomp=0.60 / qpmin=0:0:0 / qpmax=69:69:69 / qpstep=4 / vbv_maxrate=2560 / vbv_bufsize=5120 / crf_max=0.0 / nal_hrd=none / filler=0 / ip_ratio=1.40 / aq=4:0.80 / aq-sensitivity=10.00 / aq-factor=1.00:1.00:1.00 / aq2=0 / aq3=0
    Encoded date                             : UTC 2014-12-24 23:51:03
    Tagged date                              : UTC 2014-12-24 23:58:01
    Color range                              : Limited
    Color primaries                          : BT.709
    Transfer characteristics                 : BT.709
    Matrix coefficients                      : BT.709
    
    Audio
    ID                                       : 2
    Format                                   : AAC
    Format/Info                              : Advanced Audio Codec
    Format profile                           : LC
    Codec ID                                 : 67
    Duration                                 : 24mn 5s
    Bit rate mode                            : Variable
    Bit rate                                 : 221 Kbps
    Maximum bit rate                         : 227 Kbps
    Channel(s)                               : 2 channels
    Channel positions                        : Front: L R
    Sampling rate                            : 48.0 KHz
    Compression mode                         : Lossy
    Stream size                              : 38.1 MiB (12%)
    Encoded date                             : UTC 2014-12-24 23:57:59
    Tagged date                              : UTC 2014-12-24 23:58:01
    
    





    Geschützter Bereich - Bedanke dich beim Poster, um den Bereich sehen zu können
    Hier erfährst Du wie Du Dich bedanken kannst oder werde jetzt Premium Mitglied ab einer Spende von 5€ und erhalte sofortigen Zugriff auf den Downloadbereich!


    [Links sind nur für registrierte und aktivierte Nutzer sichtbar. Klicke hier um dich zu registrieren.]
    !!!Alle Anliegen bezüglich Uploads werden nur mit direktem Threadlink zum Angebot bearbeitet!!!

    Re-Uploadanfragen nur per PN - Ihr könnt mir auch Listen schicken

    Re-Uploads erfolgen meist innerhalb 24h, kann aber auch bis zu 7 Tage dauern

    [Links sind nur für registrierte und aktivierte Nutzer sichtbar. Klicke hier um dich zu registrieren.] | [Links sind nur für registrierte und aktivierte Nutzer sichtbar. Klicke hier um dich zu registrieren.] | >[Links sind nur für registrierte und aktivierte Nutzer sichtbar. Klicke hier um dich zu registrieren.]<
    [Links sind nur für registrierte und aktivierte Nutzer sichtbar. Klicke hier um dich zu registrieren.]

  4. 2 Benutzer sagen Danke:

    Asuka Langley (19. April 2016),Baschti1989 (8. October 2016)

Lesezeichen

Berechtigungen

  • Neue Themen erstellen: Nein
  • Themen beantworten: Nein
  • Anhänge hochladen: Nein
  • Beiträge bearbeiten: Nein
  •  

1 2 3 4 5 6 7 8 9 10 11 12 13 14 15 16 17 18 19 20 21 22 23 24 25 26 27 28 29 30 31 32 33 34 35 36 37 38 39 40 41 42 43 44 45 46 47 48 49 50 51 52 53 54 55 56 57 58 59 60 61 62 63 64 65 66 67 68 69 70 71 72 73 74 75 76 77 78 79 80 81 82 83 84 85 86 87 88 89 90 91 92 93 94 95 96 97 98 99 100 101 102 103 104 105 106 107 108 109 110 111 112 113 114 115 116 117 118 119 120 121 122 123 124 125 126 127 128 129 130 131 132 133 134 135 136 137 138 139 140 141 142 143 144 145 146 147 148 149 150 151 152 153 154 155 156 157 158