Ergebnis 1 bis 4 von 4

Thema: Gyakuten Saiban [Laufend][Jap-Dub][Ger-Sub][720p-8Bit/10Bit][HDTV] - Mirai-Fansubs

Dieser Thread wurde noch nicht bewertet. Bewerte ihn doch, wenn er dir gefällt!
  1. #1
    Uploader Avatar von Filbo11
    Registriert seit
    Jan 2015
    Beiträge
    931
    Punkte
    17.255
    Errungenschaften:
    TomodachisErste Gruppe1 Jahr registriertCreated Album picturesTagger First Class

    Gyakuten Saiban [Laufend][Jap-Dub][Ger-Sub][720p-8Bit/10Bit][HDTV] - Mirai-Fansubs

    Gyakuten Saiban
    逆転裁判
    Ace Attorney
    Gyakuten Saiban: Sono "Shinjitsu", Igi Ari!




    Beschreibung

    Mit vor kurzem beendeter Juristenausbildung arbeitet Ryouichi Naruhodou als Assistent in der Kanzlei von Rechtsanwältin Chihiro Ayasato, als sich ihm sein erster eigener Fall eröffnet. Masashi Yahari, Naruhodous bester Freund aus Grundschultagen, wurde des Mordes an seiner Freundin angeklagt. Da Yahari einer der Gründe dafür war, dass Naruhodou sich entschied, Rechtsanwalt zu werden, beschließt dieser schnell, seinen Freund vor Gericht zu verteidigen. Doch kann Naruhodou es schaffen, in diesem und weiteren Prozessen die Unschuld seiner Klienten zu beweisen?


    Format: mp4 [8Bit] / mkv [10Bit]
    Dauer: ca. 24 min
    Größe: ca. 613 MB [8Bit] / 514 MB [10Bit]
    Sprache: Japanisch
    Untertitel: Deutsch
    Group: [Mirai-Fansubs]
    Hoster: Uploaded.net & Share-Online.biz
    kein PW


    Screenshots & MediaInfo

    8Bit
    [Links sind nur für registrierte und aktivierte Nutzer sichtbar. Klicke hier um dich zu registrieren.]

    Code:
    General
    Complete name               : [Mirai-Fansubs] Gyakuten Saiban 01v2 [H264 720p AAC][A99DCA55].mp4
    Format                      : MPEG-4
    Format profile              : Base Media
    Codec ID                    : isom (isom)
    File size                   : 613 MiB
    Duration                    : 23mn 49s
    Overall bit rate mode       : Variable
    Overall bit rate            : 3 596 Kbps
    Encoded date                : UTC 2016-04-18 09:08:04
    Tagged date                 : UTC 2016-04-18 09:08:04
    
    Video
    ID                          : 1
    Format                      : AVC
    Format/Info                 : Advanced Video Codec
    Format profile              : [email protected]
    Format settings, CABAC      : Yes
    Format settings, ReFrames   : 8 frames
    Codec ID                    : avc1
    Codec ID/Info               : Advanced Video Coding
    Duration                    : 23mn 49s
    Bit rate                    : 3 421 Kbps
    Maximum bit rate            : 23.8 Mbps
    Width                       : 1 280 pixels
    Height                      : 720 pixels
    Display aspect ratio        : 16:9
    Frame rate mode             : Constant
    Frame rate                  : 23.976 (24000/1001) fps
    Color space                 : YUV
    Chroma subsampling          : 4:2:0
    Bit depth                   : 8 bits
    Scan type                   : Progressive
    Bits/(Pixel*Frame)          : 0.155
    Stream size                 : 583 MiB (95%)
    Writing library             : x264 core 146 r2538kMod 121396c
    Encoding settings           : cabac=1 / ref=8 / deblock=1:-1:-2 / analyse=0x3:0x113 / me=umh / subme=10 / psy=1 / fade_compensate=0.00 / psy_rd=0.80:0.10 / mixed_ref=0 / me_range=32 / chroma_me=1 / trellis=2 / 8x8dct=1 / cqm=0 / deadzone=21,11 / fast_pskip=1 / chroma_qp_offset=-3 / threads=3 / lookahead_threads=1 / sliced_threads=0 / nr=0 / decimate=1 / interlaced=0 / bluray_compat=0 / constrained_intra=0 / fgo=0 / bframes=16 / b_pyramid=2 / b_adapt=1 / b_bias=0 / direct=1 / weightb=1 / open_gop=0 / weightp=1 / keyint=240 / keyint_min=23 / scenecut=40 / intra_refresh=0 / rc_lookahead=75 / rc=crf / mbtree=1 / crf=15.5000 / qcomp=0.60 / qpmin=0 / qpmax=69 / qpstep=4 / ip_ratio=1.40 / aq=2:0.80
    Encoded date                : UTC 2016-04-18 08:04:55
    Tagged date                 : UTC 2016-04-18 09:08:39
    
    Audio
    ID                          : 2
    Format                      : AAC
    Format/Info                 : Advanced Audio Codec
    Format profile              : LC
    Codec ID                    : 40
    Duration                    : 23mn 49s
    Bit rate mode               : Variable
    Bit rate                    : 172 Kbps
    Maximum bit rate            : 237 Kbps
    Channel(s)                  : 2 channels
    Channel positions           : Front: L R
    Sampling rate               : 48.0 KHz
    Frame rate                  : 46.875 fps (1024 spf)
    Compression mode            : Lossy
    Stream size                 : 29.3 MiB (5%)
    Language                    : iba
    Encoded date                : UTC 2016-04-17 11:57:58
    Tagged date                 : UTC 2016-04-18 09:08:39


    10Bit
    [Links sind nur für registrierte und aktivierte Nutzer sichtbar. Klicke hier um dich zu registrieren.]

    Code:
    General
    
    Complete name               : [Mirai-Fansubs] Gyakuten Saiban 01v2 [Hi10p 720p AAC][6EC50C1A].mkv
    Format                      : Matroska
    Format version              : Version 4 / Version 2
    File size                   : 514 MiB
    Duration                    : 23mn 49s
    Overall bit rate            : 3 017 Kbps
    Movie name                  : [Mirai-Fansubs] Gyakuten Saiban 01 [Hi10p 720p AAC]
    Encoded date                : UTC 2016-04-18 17:45:16
    Writing application         : mkvmerge v8.9.0 ('Father Daughter') 64bit
    Writing library             : libebml v1.3.3 + libmatroska v1.4.4
    Attachments                 : VacerSansBlackPersonal.ttf / VacerSansBoldPersonal.ttf / VacerSansBookPersonal.ttf / VacerSansFatPersonal.ttf / VacerSansLightPersonal.ttf / VacerSansRegularPersonal.ttf / VacerSansThinPersonal.ttf
    
    Video
    ID                          : 1
    Format                      : AVC
    Format/Info                 : Advanced Video Codec
    Format profile              : High [email protected]
    Format settings, CABAC      : Yes
    Format settings, ReFrames   : 16 frames
    Codec ID                    : V_MPEG4/ISO/AVC
    Duration                    : 23mn 49s
    Bit rate                    : 2 759 Kbps
    Width                       : 1 280 pixels
    Height                      : 720 pixels
    Display aspect ratio        : 16:9
    Frame rate mode             : Constant
    Frame rate                  : 23.976 (24000/1001) fps
    Color space                 : YUV
    Chroma subsampling          : 4:2:0
    Bit depth                   : 10 bits
    Scan type                   : Progressive
    Bits/(Pixel*Frame)          : 0.125
    Stream size                 : 470 MiB (91%)
    Title                       : Der erste Wandel
    Writing library             : x264 core 148 r2665+53 6629127 t_mod_Custom [[email protected] X86_64]
    Encoding settings           : cabac=1 / ref=16 / deblock=1:-1:-1 / analyse=0x3:0x113 / me=umh / subme=10 / psy=1 / fade_compensate=0.70 / psy_rd=0.70:0.10 / mixed_ref=0 / me_range=32 / chroma_me=1 / trellis=2 / 8x8dct=1 / cqm=0 / deadzone=21,11 / fast_pskip=0 / chroma_qp_offset=-3 / threads=3 / lookahead_threads=1 / sliced_threads=0 / nr=0 / decimate=0 / interlaced=0 / bluray_compat=0 / constrained_intra=0 / fgo=0 / bframes=16 / b_pyramid=2 / b_adapt=2 / b_bias=0 / direct=1 / weightb=1 / open_gop=0 / weightp=1 / keyint=250 / keyint_min=25 / scenecut=40 / intra_refresh=0 / rc_lookahead=60 / rc=crf / mbtree=1 / crf=16.5000 / qcomp=0.70 / qpmin=0:0:0 / qpmax=81:81:81 / qpstep=4 / ip_ratio=1.40 / aq=3:0.80 / aq-sensitivity=10.00 / aq-factor=1.00:1.00:1.00 / aq2=0 / aq3=0
    Language                    : Japanese
    Default                     : Yes
    Forced                      : No
    Color range                 : Limited
    Matrix coefficients         : BT.709
    
    Audio
    ID                          : 2
    Format                      : AAC
    Format/Info                 : Advanced Audio Codec
    Format profile              : LC
    Codec ID                    : A_AAC
    Duration                    : 23mn 49s
    Bit rate                    : 253 Kbps
    Channel(s)                  : 2 channels
    Channel positions           : Front: L R
    Sampling rate               : 48.0 KHz
    Frame rate                  : 46.875 fps (1024 spf)
    Compression mode            : Lossy
    Stream size                 : 43.1 MiB (8%)
    Title                       : Originalton
    Language                    : Japanese
    Default                     : Yes
    Forced                      : No
    
    Text #1
    ID                          : 3
    Format                      : ASS
    Codec ID                    : S_TEXT/ASS
    Codec ID/Info               : Advanced Sub Station Alpha
    Duration                    : 23mn 46s
    Bit rate                    : 195 bps
    Count of elements           : 374
    Compression mode            : Lossless
    Stream size                 : 34.1 KiB (0%)
    Title                       : Unlokalisierte Version - Mirai-Fansubs
    Language                    : German
    Default                     : Yes
    Forced                      : No
    
    Text #2
    ID                          : 4
    Format                      : ASS
    Codec ID                    : S_TEXT/ASS
    Codec ID/Info               : Advanced Sub Station Alpha
    Duration                    : 23mn 46s
    Bit rate                    : 195 bps
    Count of elements           : 374
    Compression mode            : Lossless
    Stream size                 : 34.0 KiB (0%)
    Title                       : Lokalisierte Version - Mirai-Fansubs
    Language                    : German
    Default                     : No
    Forced                      : No
    
    Menu
    00:00:00.000                : :Anfang
    00:01:10.904                : :Opening
    00:02:40.952                : :Teil 1
    00:09:03.918                : :Teil 2
    00:21:49.850                : :Ending
    00:23:19.899                : :Vorschau


    Alle Mirrors untereinander kompatibel
    Folgen einzeln ladbar
    Folge 4/12 online


    Download
    Geschützter Bereich - Bedanke dich beim Poster, um den Bereich sehen zu können
    Hier erfährst Du wie Du Dich bedanken kannst oder werde jetzt Premium Mitglied ab einer Spende von 5€ und erhalte sofortigen Zugriff auf den Downloadbereich!


    Geändert von Filbo11 (21. June 2016 um 20:35 Uhr) Grund: folge 4 hinzugefügt

    [Links sind nur für registrierte und aktivierte Nutzer sichtbar. Klicke hier um dich zu registrieren.]

    Ich wäre allen sehr dankbar, die mir gravierende Fehler in meinen Releases per PN melden

  2. 5 Benutzer sagen Danke:

    Asuka Langley (29. April 2016),re.tischi (28. April 2016),Runata (27. April 2016),showtekia (26. April 2016),Zap (2. May 2016)

  3. #2
    Uploader Avatar von Filbo11
    Registriert seit
    Jan 2015
    Beiträge
    931
    Punkte
    17.255
    Errungenschaften:
    TomodachisErste Gruppe1 Jahr registriertCreated Album picturesTagger First Class

    AW: Gyakuten Saiban [Laufend][Jap-Dub][Ger-Sub][720p-8Bit/10Bit][HDTV] - Mirai-Fansubs

    folge 2 hinzugefügt

    [Links sind nur für registrierte und aktivierte Nutzer sichtbar. Klicke hier um dich zu registrieren.]

    Ich wäre allen sehr dankbar, die mir gravierende Fehler in meinen Releases per PN melden

  4. 1 Benutzer sagt Danke:

    Asuka Langley (29. April 2016)

  5. #3
    Uploader Avatar von Filbo11
    Registriert seit
    Jan 2015
    Beiträge
    931
    Punkte
    17.255
    Errungenschaften:
    TomodachisErste Gruppe1 Jahr registriertCreated Album picturesTagger First Class

    AW: Gyakuten Saiban [Laufend][Jap-Dub][Ger-Sub][720p-8Bit/10Bit][HDTV] - Mirai-Fansubs

    folge 3 hinzugefügt

    [Links sind nur für registrierte und aktivierte Nutzer sichtbar. Klicke hier um dich zu registrieren.]

    Ich wäre allen sehr dankbar, die mir gravierende Fehler in meinen Releases per PN melden

  6. #4
    Uploader Avatar von Filbo11
    Registriert seit
    Jan 2015
    Beiträge
    931
    Punkte
    17.255
    Errungenschaften:
    TomodachisErste Gruppe1 Jahr registriertCreated Album picturesTagger First Class

    AW: Gyakuten Saiban [Laufend][Jap-Dub][Ger-Sub][720p-8Bit/10Bit][HDTV] - Mirai-Fansubs

    folge 4 hinzugefügt

    [Links sind nur für registrierte und aktivierte Nutzer sichtbar. Klicke hier um dich zu registrieren.]

    Ich wäre allen sehr dankbar, die mir gravierende Fehler in meinen Releases per PN melden

Stichworte

Lesezeichen

Berechtigungen

  • Neue Themen erstellen: Nein
  • Themen beantworten: Nein
  • Anhänge hochladen: Nein
  • Beiträge bearbeiten: Nein
  •  

1 2 3 4 5 6 7 8 9 10 11 12 13 14 15 16 17 18 19 20 21 22 23 24 25 26 27 28 29 30 31 32 33 34 35 36 37 38 39 40 41 42 43 44 45 46 47 48 49 50 51 52 53 54 55 56 57 58 59 60 61 62 63 64 65 66 67 68 69 70 71 72 73 74 75 76 77 78 79 80 81 82 83 84 85 86 87 88 89 90 91 92 93 94 95 96 97 98 99 100 101 102 103 104 105 106 107 108 109 110 111 112 113 114 115 116 117 118 119 120 121 122 123 124 125 126 127 128 129 130 131 132 133 134 135 136 137 138 139 140 141 142 143 144 145 146 147 148 149 150 151 152 153 154 155 156 157 158