Ergebnis 1 bis 1 von 1

Thema: Hanbun no Tsuki ga Noboru Sora [Jap-Dub][Ger-Sub][352p][DVDRip] - aO & kA-Oz

Dieser Thread wurde noch nicht bewertet. Bewerte ihn doch, wenn er dir gefällt!
  1. #1
    Kami-sama Avatar von galudo
    Registriert seit
    Mar 2015
    Beiträge
    1.371
    Punkte
    26.024
    Errungenschaften:
    TomodachisTagger ProfiHyperaktivSenpaiGang Leader

    Hanbun no Tsuki ga Noboru Sora [Jap-Dub][Ger-Sub][352p][DVDRip] - aO & kA-Oz

    Hanbun no Tsuki ga Noboru Sora
    半分の月がのぼる空
    Hantsuki
    Looking up at the Half-Moon



    Kurzbeschreibung
    Der 17 Jahre alte Yuuichi muss wegen einer Hepatitis mehrere Monate untätig im Krankenhaus verbringen. Vor lauter Langeweile nutzt er jede Gelegenheit, aus dem Krankenhaus zu fliehen - unter Missachtung des strengen Verbots durch die Krankenschwester Akiko.
    Diese bietet dem Jungen schließlich an, ihm mehr Freiheiten zu gewähren, falls er eine gleichaltrige Patientin namens Rika ein wenig aufmuntern würde. Denn Rika leidet unter einem Herzfehler und hat voraussichtlich nicht mehr lange zu leben, zumal sie die gefährliche Operation, welche ihr noch eine Chance bieten könnte, ablehnt.

    Akiko gibt Yuuichi ein Buch von Akutagawa Ryuunosuke, dem Lieblingsautor von Rika und sagt ihm, er solle es als sein Lieblingsbuch ausgeben. Doch Rika merkt nach kurzer Unterhaltung, dass Yuuichi vom Inhalt des Buchs keine Ahnung hat. Zur Strafe schickt sie ihn zur Bücherei, um ihr neue Bücher zu holen. Obwohl Rika Yuuichi ständig schikaniert, verbringen die beiden mehr und mehr Zeit miteinander.

    Yuuichi erfährt schließlich, dass Rikas Vater ebenfalls in diesem Krankenhaus gestorben ist und sich kurz vor seinem Tod auf einem Hügel ganz in der Nähe von ihr verabschiedete. Rika sehnt sich danach, noch einmal auf diesen Hügel zurückzukehren, um dadurch die Angst vor ihrem nahenden Tod überwinden zu können...

    Ein erschütternd realistisches Drama mit teils skurrilen Charakteren und einigen verblüffenden Comedy-Einlagen.
    Format: AVI
    Sprache: Japanisch
    Untertitel: Deutsch
    Genre: Comedy, Drama, Romanze
    Größe: ~ 190 MB pro Folge | Gesamtgröße: 1,03 GB
    Dauer: ~ 25 Minuten
    Jahr: 2006
    Video: 640x352p
    Source: DVDRip
    Subgroup / Releasegroup: AnimeOwnage & kA-Oz Subs

    Hoster: Share-Online | Uploaded
    Passwort: siehe unten


    Datei-Info
    Spoiler
    Code:
    General
    Complete name                  : [aO & kA-Oz]Hanbun no Tsuki ga Noboru Sora 01 XviD [7AF29103].avi
    Format                         : AVI
    Format/Info                    : Audio Video Interleave
    File size                      : 179 MiB
    Duration                       : 24mn 40s
    Overall bit rate               : 1 014 Kbps
    Original source form/Distribut : BSD
    Writing application            : VirtualDubMod 1.5.10.1 (build 2366/release)
    Writing library                : VirtualDubMod build 2366/release
    
    Video
    ID                             : 0
    Format                         : MPEG-4 Visual
    Format profile                 : [email protected]
    Format settings, BVOP          : 2
    Format settings, QPel          : No
    Format settings, GMC           : No warppoints
    Format settings, Matrix        : Default (H.263)
    Muxing mode                    : Packed bitstream
    Codec ID                       : XVID
    Codec ID/Hint                  : XviD
    Duration                       : 24mn 40s
    Bit rate                       : 780 Kbps
    Width                          : 640 pixels
    Height                         : 352 pixels
    Display aspect ratio           : 16:9
    Frame rate                     : 23.976 fps
    Color space                    : YUV
    Chroma subsampling             : 4:2:0
    Bit depth                      : 8 bits
    Scan type                      : Progressive
    Compression mode               : Lossy
    Bits/(Pixel*Frame)             : 0.144
    Stream size                    : 138 MiB (77%)
    Writing library                : XviD 1.1.0 Beta2 (UTC 2005-04-04)
    
    Audio
    ID                             : 1
    Format                         : MPEG Audio
    Format version                 : Version 1
    Format profile                 : Layer 3
    Codec ID                       : 55
    Codec ID/Hint                  : MP3
    Duration                       : 24mn 40s
    Bit rate mode                  : Constant
    Bit rate                       : 224 Kbps
    Channel(s)                     : 2 channels
    Sampling rate                  : 48.0 KHz
    Compression mode               : Lossy
    Stream size                    : 39.5 MiB (22%)
    Alignment                      : Aligned on interleaves
    Interleave, duration           : 42 ms (1.00 video frame)
    Interleave, preload duration   : 504 ms
    


    Folgen 06 / 06 online
    Folgen einzeln ladbar



    || Download & Passwort ||
    Geschützter Bereich - Bedanke dich beim Poster, um den Bereich sehen zu können
    Hier erfährst Du wie Du Dich bedanken kannst oder werde jetzt Premium Mitglied ab einer Spende von 5€ und erhalte sofortigen Zugriff auf den Downloadbereich!

    Geändert von galudo (21. April 2016 um 18:18 Uhr)
    SUPPORT UND REUP ANFRAGEN NUR >> [Links sind nur für registrierte und aktivierte Nutzer sichtbar. Klicke hier um dich zu registrieren.] <<
    Bitte IMMER den Thread-Link mitschicken.

  2. 15 Benutzer sagen Danke:

    Aizen-Sama (Gestern),Akio (20. October 2015),Aluaran (19. October 2015),Bandillo64 (8. March 2016),Dreieckhard (18. October 2015),exterminus (11. February 2016),midnighter (26. October 2015),riku14466 (23. March 2016),Ronae (19. October 2015),Shirayah (16. March 2016),Shirobaka (27. November 2016),TakashiKudo (9. December 2015),Terrorhasii.x3 (22. May 2016),tokyodrift (26. October 2015),Tzi (19. October 2015)

Stichworte

Lesezeichen

Berechtigungen

  • Neue Themen erstellen: Nein
  • Themen beantworten: Nein
  • Anhänge hochladen: Nein
  • Beiträge bearbeiten: Nein
  •  

1 2 3 4 5 6 7 8 9 10 11 12 13 14 15 16 17 18 19 20 21 22 23 24 25 26 27 28 29 30 31 32 33 34 35 36 37 38 39 40 41 42 43 44 45 46 47 48 49 50 51 52 53 54 55 56 57 58 59 60 61 62 63 64 65 66 67 68 69 70 71 72 73 74 75 76 77 78 79 80 81 82 83 84 85 86 87 88 89 90 91 92 93 94 95 96 97 98 99 100 101 102 103 104 105 106 107 108 109 110 111 112 113 114 115 116 117 118 119 120 121 122 123 124 125 126 127 128 129 130 131 132 133 134 135 136 137 138 139 140 141 142 143 144 145 146 147 148 149 150 151 152 153 154 155 156 157 158