Ergebnis 1 bis 2 von 2

Thema: Harukanaru Toki no Naka de: Hachiyoushou + Specials [Jap-Dub][Ger-Sub][396p][DVDRip]

Dieser Thread wurde noch nicht bewertet. Bewerte ihn doch, wenn er dir gefällt!
  1. #1
    United we Stand Avatar von 00Ryuji00
    Registriert seit
    Oct 2012
    Beiträge
    3.902
    Punkte
    99.938
    Errungenschaften:
    TomodachisGang LeaderHikikomoriTagger Amateur50000 Erfahrungspunkte

    Harukanaru Toki no Naka de: Hachiyoushou + Specials [Jap-Dub][Ger-Sub][396p][DVDRip]

    Harukanaru Toki no Naka de: Hachiyoushou
    遙かなる時空の中で~八葉抄~
    Haruka -Beyond the Stream of Time-: A Tale of the Eight Guardians
    Haruka 8
    Harukanaru
    In a Distant Time






    Kurzbeschreibung:
    Das Mädchen Akane gerät zusammen mit ihren Schulkameraden Tenma und Shimon in eine altchinesisch anmutende Welt, wo sie zur Priesterin des Landes erkoren wird. Sie soll das Land vor dem Untergang und vor den Dämonen retten, gegen die die Menschen dort kämpfen - und muss daher die Hachiyoushou, ihre Beschützer um sich versammeln.

    Leider ist dies nicht immer einfach, zumal Tenma auch einer von ihnen ist - jedoch in jeder freien Minute Wege sucht, wieder zurück nach Hause zu finden. Ausserdem ist da noch der geheimnisvolle Akram, der Akane in diese Welt geholt hat.

    Ist er ein Feind? Warum hat er Akane zu sich gerufen und warum der Krieg zwischen Menschen und Dämonen?


    Sprache: Japanisch
    Untertitel: Deutsch
    Episodenanzahl: 26/26 + 8/8 + 1/1 + 1/1 + 1/1
    Format: .mp4
    Auflösung: 396p (16:9)
    Codec: x264
    Gruppe: C-Subs
    Hoster: Share-Online ; Uploaded


    Datei Info:
    Spoiler

    Code:
    
    
    Format                                   : MPEG-4
    Format profile                           : Base Media
    Codec ID                                 : isom
    File size                                : 215 MiB
    Duration                                 : 26mn 18s
    Overall bit rate mode                    : Variable
    Overall bit rate                         : 1 144 Kbps
    Encoded date                             : UTC 2011-01-21 21:59:47
    Tagged date                              : UTC 2011-01-21 21:59:47
    
    Video
    ID                                       : 1
    Format                                   : AVC
    Format/Info                              : Advanced Video Codec
    Format profile                           : [email protected]
    Format settings, CABAC                   : Yes
    Format settings, ReFrames                : 3 frames
    Codec ID                                 : avc1
    Codec ID/Info                            : Advanced Video Coding
    Duration                                 : 26mn 18s
    Bit rate                                 : 884 Kbps
    Maximum bit rate                         : 4 196 Kbps
    Width                                    : 704 pixels
    Height                                   : 396 pixels
    Display aspect ratio                     : 16:9
    Frame rate mode                          : Constant
    Frame rate                               : 23.976 fps
    Color space                              : YUV
    Chroma subsampling                       : 4:2:0
    Bit depth                                : 8 bits
    Scan type                                : Progressive
    Bits/(Pixel*Frame)                       : 0.132
    Stream size                              : 166 MiB (77%)
    Writing library                          : x264 core 98 r1649 20cbe10
    Encoding settings                        : cabac=1 / ref=3 / deblock=1:0:0 / analyse=0x3:0x113 / me=hex / subme=7 / psy=1 / psy_rd=1.00:0.00 / mixed_ref=1 / me_range=16 / chroma_me=1 / trellis=0 / 8x8dct=1 / cqm=0 / deadzone=21,11 / fast_pskip=1 / chroma_qp_offset=-2 / threads=6 / sliced_threads=0 / nr=0 / decimate=1 / interlaced=0 / constrained_intra=0 / bframes=3 / b_pyramid=0 / b_adapt=1 / b_bias=0 / direct=1 / weightb=1 / weightp=2 / keyint=250 / keyint_min=25 / scenecut=40 / intra_refresh=0 / rc_lookahead=40 / rc=2pass / mbtree=1 / bitrate=884 / ratetol=1.0 / qcomp=0.60 / qpmin=10 / qpmax=51 / qpstep=4 / cplxblur=20.0 / qblur=0.5 / vbv_maxrate=31250 / vbv_bufsize=31250 / ip_ratio=1.40 / aq=1:1.00 / nal_hrd=none
    Encoded date                             : UTC 2011-01-20 23:58:10
    Tagged date                              : UTC 2011-01-21 22:00:07
    
    Audio
    ID                                       : 2
    Format                                   : AAC
    Format/Info                              : Advanced Audio Codec
    Format profile                           : LC
    Codec ID                                 : 40
    Duration                                 : 26mn 18s
    Bit rate mode                            : Variable
    Bit rate                                 : 256 Kbps
    Maximum bit rate                         : 263 Kbps
    Channel count                            : 2 channels
    Channel positions                        : Front: L R
    Sampling rate                            : 48.0 KHz
    Compression mode                         : Lossy
    Stream size                              : 48.2 MiB (22%)
    Encoded date                             : UTC 2011-01-21 22:00:02
    Tagged date                              : UTC 2011-01-21 22:00:07
    
    






    Geschützter Bereich - Bedanke dich beim Poster, um den Bereich sehen zu können
    Hier erfährst Du wie Du Dich bedanken kannst oder werde jetzt Premium Mitglied ab einer Spende von 5€ und erhalte sofortigen Zugriff auf den Downloadbereich!

    !!!Alle Anliegen bezüglich Uploads werden nur mit direktem Threadlink zum Angebot bearbeitet!!!

    Re-Uploadanfragen nur per PN - Ihr könnt mir auch Listen schicken

    Re-Uploads erfolgen meist innerhalb 24h, kann aber auch bis zu 7 Tage dauern

    [Links sind nur für registrierte und aktivierte Nutzer sichtbar. Klicke hier um dich zu registrieren.] | [Links sind nur für registrierte und aktivierte Nutzer sichtbar. Klicke hier um dich zu registrieren.] | >[Links sind nur für registrierte und aktivierte Nutzer sichtbar. Klicke hier um dich zu registrieren.]<
    [Links sind nur für registrierte und aktivierte Nutzer sichtbar. Klicke hier um dich zu registrieren.]

  2. 12 Benutzer sagen Danke:

    Akio (31. October 2015),Conopas (11. March 2016),dreambird1973 (10. February 2016),julian.schuh (16. March 2016),midnighter (4. August 2015),mOlDaViA (7. May 2016),Obiwan Shinobi (29. September 2015),prinzvegeta (10. August 2015),Shadowa (27. August 2015),SONNYxq (31. July 2015),Tschu23 (9. March 2016),White_Anubis (24. May 2016)

  3. #2
    United we Stand Avatar von 00Ryuji00
    Registriert seit
    Oct 2012
    Beiträge
    3.902
    Punkte
    99.938
    Errungenschaften:
    TomodachisGang LeaderHikikomoriTagger Amateur50000 Erfahrungspunkte

    AW: Harukanaru Toki no Naka de: Hachiyoushou + Specials [Jap-Dub][Ger-Sub][396p][DVDRip]

    Update: Dateien auf Wunsch wieder online.
    !!!Alle Anliegen bezüglich Uploads werden nur mit direktem Threadlink zum Angebot bearbeitet!!!

    Re-Uploadanfragen nur per PN - Ihr könnt mir auch Listen schicken

    Re-Uploads erfolgen meist innerhalb 24h, kann aber auch bis zu 7 Tage dauern

    [Links sind nur für registrierte und aktivierte Nutzer sichtbar. Klicke hier um dich zu registrieren.] | [Links sind nur für registrierte und aktivierte Nutzer sichtbar. Klicke hier um dich zu registrieren.] | >[Links sind nur für registrierte und aktivierte Nutzer sichtbar. Klicke hier um dich zu registrieren.]<
    [Links sind nur für registrierte und aktivierte Nutzer sichtbar. Klicke hier um dich zu registrieren.]

  4. 1 Benutzer sagt Danke:

    midnighter (10. March 2016)

Lesezeichen

Berechtigungen

  • Neue Themen erstellen: Nein
  • Themen beantworten: Nein
  • Anhänge hochladen: Nein
  • Beiträge bearbeiten: Nein
  •  

1 2 3 4 5 6 7 8 9 10 11 12 13 14 15 16 17 18 19 20 21 22 23 24 25 26 27 28 29 30 31 32 33 34 35 36 37 38 39 40 41 42 43 44 45 46 47 48 49 50 51 52 53 54 55 56 57 58 59 60 61 62 63 64 65 66 67 68 69 70 71 72 73 74 75 76 77 78 79 80 81 82 83 84 85 86 87 88 89 90 91 92 93 94 95 96 97 98 99 100 101 102 103 104 105 106 107 108 109 110 111 112 113 114 115 116 117 118 119 120 121 122 123 124 125 126 127 128 129 130 131 132 133 134 135 136 137 138 139 140 141 142 143 144 145 146 147 148 149 150 151 152 153 154 155 156 157 158