Ergebnis 1 bis 5 von 5

Thema: Heavy Object [Eingestellt][Jap-Dub][Ger-Sub][720p][8Bit/10Bit][HDTV] - Chinurarete-Subs

Dieser Thread wurde noch nicht bewertet. Bewerte ihn doch, wenn er dir gefällt!
  1. #1
    United we Stand Avatar von 00Ryuji00
    Registriert seit
    Oct 2012
    Beiträge
    3.902
    Punkte
    100.019
    Errungenschaften:
    TomodachisGang LeaderHikikomoriTagger Amateur50000 Erfahrungspunkte

    Heavy Object [Eingestellt][Jap-Dub][Ger-Sub][720p][8Bit/10Bit][HDTV] - Chinurarete-Subs

    Heavy Object
    ヘヴィーオブジェクト



    Kurzbeschreibung:
    Zitat Zitat von AniSearch.com
    Heavy Objects sind riesige menschengesteuerte Maschinen, die in den Kriegen zwischen den Ländern gegeneinander kämpfen. Bei einer dieser Schlachten wird BABY MAGNUM, das Heavy Object der Nation Legitimate Kingdom, zerstört und seine Pilotin Milinda Brantini, von allen nur "Prinzessin" genannt, gefangen genommen. Trotz des Rückzugbefehls weigert sich Quensar Bourbotage seine Kameradin einfach so aufzugeben und macht sich mit seinem Freund Heivia Winchell auf den Weg, um sich den Feinden und ihrem unbezwingbaren Heavy Object zu stellen und die Prinzessin zu retten.
    Spieldauer: ~ 24min
    Genre: Actiondrama
    Nebengenres: Action, Drama, Mecha, Männlich, Sci-Fi
    Jahr: 2015
    Sprache: Japanisch
    Untertitel: Deutsch
    Größe pro Folge: ~ 720MB/800MB
    Episodenanzahl: 05/12
    Format: MP4, MKV
    Auflösung: 720p (16:9)
    Videocodec: x264 (AVC), 8Bit/10Bit
    Audiocodec: AAC
    Releasegruppe: Chinurarete-Subs
    Hoster: Uploaded, Share-Online

    MediaInfo
    720p-8Bit
    Code:
    
    Format                                   : MPEG-4
    Format profile                           : Base Media
    Codec ID                                 : isom
    File size                                : 721 MiB
    Duration                                 : 23mn 52s
    Overall bit rate mode                    : Variable
    Overall bit rate                         : 4 218 Kbps
    Encoded date                             : UTC 2015-10-06 20:54:26
    Tagged date                              : UTC 2015-10-06 20:54:26
    
    Video
    ID                                       : 1
    Format                                   : AVC
    Format/Info                              : Advanced Video Codec
    Format profile                           : [email protected]
    Format settings, CABAC                   : Yes
    Format settings, ReFrames                : 9 frames
    Codec ID                                 : avc1
    Codec ID/Info                            : Advanced Video Coding
    Duration                                 : 23mn 52s
    Bit rate                                 : 3 963 Kbps
    Maximum bit rate                         : 32.2 Mbps
    Width                                    : 1 280 pixels
    Height                                   : 720 pixels
    Display aspect ratio                     : 16:9
    Frame rate mode                          : Constant
    Frame rate                               : 23.976 fps
    Color space                              : YUV
    Chroma subsampling                       : 4:2:0
    Bit depth                                : 8 bits
    Scan type                                : Progressive
    Bits/(Pixel*Frame)                       : 0.179
    Stream size                              : 677 MiB (94%)
    Writing library                          : x264 core 142 r2409kMod d6b4e63
    Encoding settings                        : cabac=1 / ref=9 / deblock=1:0:0 / analyse=0x1:0x131 / me=umh / subme=11 / psy=1 / fade_compensate=0.00 / psy_rd=1.00:0.00 / mixed_ref=1 / me_range=32 / chroma_me=1 / trellis=2 / 8x8dct=0 / cqm=0 / deadzone=21,11 / fast_pskip=0 / chroma_qp_offset=-2 / threads=6 / lookahead_threads=1 / sliced_threads=0 / nr=0 / decimate=0 / interlaced=0 / bluray_compat=0 / constrained_intra=0 / fgo=0 / bframes=16 / b_pyramid=2 / b_adapt=2 / b_bias=0 / direct=3 / weightb=1 / open_gop=0 / weightp=2 / keyint=250 / keyint_min=23 / scenecut=40 / intra_refresh=0 / rc_lookahead=250 / rc=crf / mbtree=1 / crf=16.0000 / qcomp=0.75 / qpmin=0 / qpmax=69 / qpstep=4 / ip_ratio=1.40 / aq=2:0.86
    Encoded date                             : UTC 2015-10-06 20:54:26
    Tagged date                              : UTC 2015-10-06 20:54:30
    Color primaries                          : BT.709
    Transfer characteristics                 : BT.709
    Matrix coefficients                      : BT.709
    
    Audio
    ID                                       : 2
    Format                                   : AAC
    Format/Info                              : Advanced Audio Codec
    Format profile                           : LC
    Codec ID                                 : 40
    Duration                                 : 23mn 52s
    Bit rate mode                            : Variable
    Bit rate                                 : 252 Kbps
    Maximum bit rate                         : 258 Kbps
    Channel count                            : 2 channels
    Channel positions                        : Front: L R
    Sampling rate                            : 48.0 KHz
    Compression mode                         : Lossy
    Stream size                              : 43.0 MiB (6%)
    Encoded date                             : UTC 2015-10-06 20:54:30
    Tagged date                              : UTC 2015-10-06 20:54:30
    
    Menu
    00:00:00.000                             : Einleitung
    00:04:58.965                             : Hauptteil
    00:22:12.950                             : Ending
    00:23:42.960                             : Vorschau
    
    720p-10Bit
    Code:
    
    Format                                   : Matroska
    Format version                           : Version 4 / Version 2
    File size                                : 802 MiB
    Duration                                 : 23mn 39s
    Overall bit rate                         : 4 735 Kbps
    Movie name                               : [Chinurarete Subs] Heavy Object - Folge 01 - Die kleinen Soldaten, die Gulliver fesselten - Kampf im Schneegestöber Alaskas I
    Encoded date                             : UTC 2015-10-07 19:45:10
    Writing application                      : mkvmerge v7.0.0 ('Where We Going') 64bit built on Jun  9 2014 15:16:27
    Writing library                          : libebml v1.3.0 + libmatroska v1.4.1
    DURATION                                 : 00:23:29.150000000
    NUMBER_OF_FRAMES                         : 5990
    NUMBER_OF_BYTES                          : 1128586
    _STATISTICS_WRITING_APP                  : mkvmerge v7.0.0 ('Where We Going') 64bit built on Jun  9 2014 15:16:27
    _STATISTICS_WRITING_DATE_UTC             : 2015-10-07 19:45:10
    _STATISTICS_TAGS                         : BPS DURATION NUMBER_OF_FRAMES NUMBER_OF_BYTES
    Attachment                               : Yes / Yes / Yes / Yes / Yes / Yes / Yes / Yes / Yes
    
    Video
    ID                                       : 1
    Format                                   : AVC
    Format/Info                              : Advanced Video Codec
    Format profile                           : High [email protected]
    Format settings, CABAC                   : Yes
    Format settings, ReFrames                : 16 frames
    Codec ID                                 : V_MPEG4/ISO/AVC
    Duration                                 : 23mn 39s
    Width                                    : 1 280 pixels
    Height                                   : 720 pixels
    Display aspect ratio                     : 16:9
    Frame rate mode                          : Constant
    Frame rate                               : 23.976 fps
    Color space                              : YUV
    Chroma subsampling                       : 4:2:0
    Bit depth                                : 10 bits
    Scan type                                : Progressive
    Title                                    : Video
    Writing library                          : x264 core 133 r2334 a3ac64b
    Encoding settings                        : cabac=1 / ref=16 / deblock=1:1:0 / analyse=0x3:0x133 / me=umh / subme=11 / psy=1 / psy_rd=1.15:0.25 / mixed_ref=1 / me_range=30 / chroma_me=1 / trellis=2 / 8x8dct=1 / cqm=0 / deadzone=21,11 / fast_pskip=0 / chroma_qp_offset=-4 / threads=12 / lookahead_threads=3 / sliced_threads=0 / nr=0 / decimate=0 / interlaced=0 / bluray_compat=0 / constrained_intra=0 / bframes=16 / b_pyramid=2 / b_adapt=2 / b_bias=0 / direct=3 / weightb=1 / open_gop=0 / weightp=2 / keyint=249 / keyint_min=23 / scenecut=40 / intra_refresh=0 / rc_lookahead=249 / rc=crf / mbtree=1 / crf=16.0 / qcomp=0.90 / qpmin=0 / qpmax=81 / qpstep=4 / ip_ratio=1.40 / aq=2:0.80
    Language                                 : German
    Default                                  : Yes
    Forced                                   : Yes
    Color primaries                          : BT.709
    Transfer characteristics                 : BT.709
    Matrix coefficients                      : BT.709
    
    Audio
    ID                                       : 2
    Format                                   : AAC
    Format/Info                              : Advanced Audio Codec
    Format profile                           : LC
    Codec ID                                 : A_AAC
    Duration                                 : 23mn 39s
    Channel count                            : 2 channels
    Channel positions                        : Front: L R
    Sampling rate                            : 48.0 KHz
    Compression mode                         : Lossy
    Title                                    : Audio
    Language                                 : Japanese
    Default                                  : Yes
    Forced                                   : Yes
    
    Text #1
    ID                                       : 3
    Format                                   : ASS
    Codec ID                                 : S_TEXT/ASS
    Codec ID/Info                            : Advanced Sub Station Alpha
    Compression mode                         : Lossless
    Title                                    : Farbsub
    Language                                 : German
    Default                                  : No
    Forced                                   : Yes
    
    Text #2
    ID                                       : 4
    Format                                   : ASS
    Codec ID                                 : S_TEXT/ASS
    Codec ID/Info                            : Advanced Sub Station Alpha
    Compression mode                         : Lossless
    Title                                    : Kein Farbsub
    Language                                 : German
    Default                                  : Yes
    Forced                                   : Yes
    
    Menu
    00:00:00.000                             : de:Einleitung
    00:04:58.965                             : de:Hauptteil
    00:21:59.944                             : :Ending
    00:23:29.950                             : de:Vorschau


    Projekt wurde gedroppt. Sind die Files einmal offline, bleiben sie auch offline!



    Geschützter Bereich - Bedanke dich beim Poster, um den Bereich sehen zu können
    Hier erfährst Du wie Du Dich bedanken kannst oder werde jetzt Premium Mitglied ab einer Spende von 5€ und erhalte sofortigen Zugriff auf den Downloadbereich!


    [Links sind nur für registrierte und aktivierte Nutzer sichtbar. Klicke hier um dich zu registrieren.]
    Geändert von so1k (12. October 2016 um 20:11 Uhr)
    !!!Alle Anliegen bezüglich Uploads werden nur mit direktem Threadlink zum Angebot bearbeitet!!!

    Re-Uploadanfragen nur per PN - Ihr könnt mir auch Listen schicken

    Re-Uploads erfolgen meist innerhalb 24h, kann aber auch bis zu 7 Tage dauern

    [Links sind nur für registrierte und aktivierte Nutzer sichtbar. Klicke hier um dich zu registrieren.] | [Links sind nur für registrierte und aktivierte Nutzer sichtbar. Klicke hier um dich zu registrieren.] | >[Links sind nur für registrierte und aktivierte Nutzer sichtbar. Klicke hier um dich zu registrieren.]<
    [Links sind nur für registrierte und aktivierte Nutzer sichtbar. Klicke hier um dich zu registrieren.]

  2. 37 Benutzer sagen Danke:

    alucard77 (17. October 2015),AngelNine (12. October 2015),archonize (27. October 2015),B3nnoX (2. December 2015),Cande (8. October 2015),Chrissi89 (17. January 2016),coldbears48 (3. November 2015),DJPAUL1990 (25. October 2015),DomStrike (30. April 2016),Drachengott (11. October 2015),Filbo11 (6. February 2016),Ghostdok (30. October 2015),GiftGasBaer (22. February 2016),hraver (8. October 2015),Hyro (24. October 2015),Ignasum (11. October 2015),Kartox (16. November 2015),Kimaliko (5. December 2015),lalali (17. October 2015),Max13493 (11. October 2015),midnighter (10. October 2015),Mr.Shit (11. October 2015),Murtagks (10. October 2015),Noire16 (16. October 2015),OtakuTim (11. October 2015),rekiznuh1 (11. October 2015),Seki (18. December 2015),Shirobaka (22. December 2015),Silent467 (9. October 2015),Sirius (17. October 2015),SONNYxq (2. November 2015),TakashiKudo (25. October 2015),Th3R3v0lut1on (5. December 2015),Thomas62345 (5. December 2015),tokyodrift (2. November 2015),YamiXGhost (9. October 2015),Zap (14. October 2015)

  3. #2
    Uploader Avatar von Filbo11
    Registriert seit
    Jan 2015
    Beiträge
    931
    Punkte
    17.281
    Errungenschaften:
    TomodachisErste Gruppe1 Jahr registriertCreated Album picturesTagger First Class

    AW: Heavy Object [Eingestellt][Jap-Dub][Ger-Sub][720p][8Bit/10Bit][HDTV] - Chinurarete-Subs

    Heavy Object
    ヘヴィーオブジェクト




    Beschreibung

    Heavy Objects sind riesige menschengesteuerte Maschinen, die in den Kriegen zwischen den Ländern gegeneinander kämpfen. Bei einer dieser Schlachten wird BABY MAGNUM, das Heavy Object der Nation Legitimate Kingdom, zerstört und seine Pilotin Milinda Brantini, von allen nur "Prinzessin" genannt, gefangen genommen. Trotz des Rückzugbefehls weigert sich Quensar Bourbotage seine Kameradin einfach so aufzugeben und macht sich mit seinem Freund Heivia Winchell auf den Weg, um sich den Feinden und ihrem unbezwingbaren Heavy Object zu stellen und die Prinzessin zu retten.


    Format: mp4 [8Bit] / mkv [10Bit]
    Dauer: ca. 24 min
    Größe: ca. 720 MB [8Bit] / 801 MB [10Bit]
    Sprache: Japanisch
    Untertitel: Deutsch
    Group: [Chinurarete Subs]
    Hoster: Uploaded.net & Share-Online.biz
    kein PW


    Screenshots & MediaInfo

    8Bit
    [Links sind nur für registrierte und aktivierte Nutzer sichtbar. Klicke hier um dich zu registrieren.]

    Code:
    General
    Complete name               : [Chinurarete_Subs]Heavy_Object_Folge_01_8Bit.mp4
    Format                      : MPEG-4
    Format profile              : Base Media
    Codec ID                    : isom
    File size                   : 721 MiB
    Duration                    : 23mn 52s
    Overall bit rate mode       : Variable
    Overall bit rate            : 4 218 Kbps
    Encoded date                : UTC 2015-10-06 20:54:26
    Tagged date                 : UTC 2015-10-06 20:54:26
    
    Video
    ID                          : 1
    Format                      : AVC
    Format/Info                 : Advanced Video Codec
    Format profile              : [email protected]
    Format settings, CABAC      : Yes
    Format settings, ReFrames   : 9 frames
    Codec ID                    : avc1
    Codec ID/Info               : Advanced Video Coding
    Duration                    : 23mn 52s
    Bit rate                    : 3 963 Kbps
    Maximum bit rate            : 32.2 Mbps
    Width                       : 1 280 pixels
    Height                      : 720 pixels
    Display aspect ratio        : 16:9
    Frame rate mode             : Constant
    Frame rate                  : 23.976 fps
    Color space                 : YUV
    Chroma subsampling          : 4:2:0
    Bit depth                   : 8 bits
    Scan type                   : Progressive
    Bits/(Pixel*Frame)          : 0.179
    Stream size                 : 677 MiB (94%)
    Writing library             : x264 core 142 r2409kMod d6b4e63
    Encoding settings           : cabac=1 / ref=9 / deblock=1:0:0 / analyse=0x1:0x131 / me=umh / subme=11 / psy=1 / fade_compensate=0.00 / psy_rd=1.00:0.00 / mixed_ref=1 / me_range=32 / chroma_me=1 / trellis=2 / 8x8dct=0 / cqm=0 / deadzone=21,11 / fast_pskip=0 / chroma_qp_offset=-2 / threads=6 / lookahead_threads=1 / sliced_threads=0 / nr=0 / decimate=0 / interlaced=0 / bluray_compat=0 / constrained_intra=0 / fgo=0 / bframes=16 / b_pyramid=2 / b_adapt=2 / b_bias=0 / direct=3 / weightb=1 / open_gop=0 / weightp=2 / keyint=250 / keyint_min=23 / scenecut=40 / intra_refresh=0 / rc_lookahead=250 / rc=crf / mbtree=1 / crf=16.0000 / qcomp=0.75 / qpmin=0 / qpmax=69 / qpstep=4 / ip_ratio=1.40 / aq=2:0.86
    Encoded date                : UTC 2015-10-06 20:54:26
    Tagged date                 : UTC 2015-10-06 20:54:30
    Color range                 : Limited
    Color primaries             : BT.709
    Transfer characteristics    : BT.709
    Matrix coefficients         : BT.709
    
    Audio
    ID                          : 2
    Format                      : AAC
    Format/Info                 : Advanced Audio Codec
    Format profile              : LC
    Codec ID                    : 40
    Duration                    : 23mn 52s
    Bit rate mode               : Variable
    Bit rate                    : 252 Kbps
    Maximum bit rate            : 258 Kbps
    Channel(s)                  : 2 channels
    Channel positions           : Front: L R
    Sampling rate               : 48.0 KHz
    Compression mode            : Lossy
    Stream size                 : 43.0 MiB (6%)
    Encoded date                : UTC 2015-10-06 20:54:30
    Tagged date                 : UTC 2015-10-06 20:54:30
    
    Menu
    00:00:00.000                : Einleitung
    00:04:58.965                : Hauptteil
    00:22:12.950                : Ending
    00:23:42.960                : Vorschau


    10Bit
    [Links sind nur für registrierte und aktivierte Nutzer sichtbar. Klicke hier um dich zu registrieren.]

    Code:
    General
    
    Complete name               : [Chinurarete_Subs]Heavy_Object_Folge_01_10Bit.mkv
    Format                      : Matroska
    Format version              : Version 4 / Version 2
    File size                   : 802 MiB
    Duration                    : 23mn 39s
    Overall bit rate            : 4 735 Kbps
    Movie name                  : [Chinurarete Subs] Heavy Object - Folge 01 - Die kleinen Soldaten, die Gulliver fesselten - Kampf im Schneegestöber Alaskas I
    Encoded date                : UTC 2015-10-07 19:45:10
    Writing application         : mkvmerge v7.0.0 ('Where We Going') 64bit built on Jun  9 2014 15:16:27
    Writing library             : libebml v1.3.0 + libmatroska v1.4.1
    Attachements                : CENSCBK.TTF / HWYGCOND.TTF / HWYGEXPD.TTF / HWYGNRRW.TTF / HWYGOTH.TTF / HWYGWDE.TTF / SCHLBKB.TTF / SCHLBKBI.TTF / SCHLBKI.TTF
    DURATION                    : 00:23:29.150000000
    NUMBER_OF_FRAMES            : 5990
    NUMBER_OF_BYTES             : 1128586
    _STATISTICS_WRITING_APP     : mkvmerge v7.0.0 ('Where We Going') 64bit built on Jun  9 2014 15:16:27
    _STATISTICS_WRITING_DATE_UT : 2015-10-07 19:45:10
    _STATISTICS_TAGS            : BPS DURATION NUMBER_OF_FRAMES NUMBER_OF_BYTES
    
    Video
    ID                          : 1
    Format                      : AVC
    Format/Info                 : Advanced Video Codec
    Format profile              : High [email protected]
    Format settings, CABAC      : Yes
    Format settings, ReFrames   : 16 frames
    Codec ID                    : V_MPEG4/ISO/AVC
    Duration                    : 23mn 39s
    Width                       : 1 280 pixels
    Height                      : 720 pixels
    Display aspect ratio        : 16:9
    Frame rate mode             : Constant
    Frame rate                  : 23.976 fps
    Color space                 : YUV
    Chroma subsampling          : 4:2:0
    Bit depth                   : 10 bits
    Scan type                   : Progressive
    Title                       : Video
    Writing library             : x264 core 133 r2334 a3ac64b
    Encoding settings           : cabac=1 / ref=16 / deblock=1:1:0 / analyse=0x3:0x133 / me=umh / subme=11 / psy=1 / psy_rd=1.15:0.25 / mixed_ref=1 / me_range=30 / chroma_me=1 / trellis=2 / 8x8dct=1 / cqm=0 / deadzone=21,11 / fast_pskip=0 / chroma_qp_offset=-4 / threads=12 / lookahead_threads=3 / sliced_threads=0 / nr=0 / decimate=0 / interlaced=0 / bluray_compat=0 / constrained_intra=0 / bframes=16 / b_pyramid=2 / b_adapt=2 / b_bias=0 / direct=3 / weightb=1 / open_gop=0 / weightp=2 / keyint=249 / keyint_min=23 / scenecut=40 / intra_refresh=0 / rc_lookahead=249 / rc=crf / mbtree=1 / crf=16.0 / qcomp=0.90 / qpmin=0 / qpmax=81 / qpstep=4 / ip_ratio=1.40 / aq=2:0.80
    Language                    : German
    Default                     : Yes
    Forced                      : Yes
    Color range                 : Limited
    Color primaries             : BT.709
    Transfer characteristics    : BT.709
    Matrix coefficients         : BT.709
    
    Audio
    ID                          : 2
    Format                      : AAC
    Format/Info                 : Advanced Audio Codec
    Format profile              : LC
    Codec ID                    : A_AAC
    Duration                    : 23mn 39s
    Channel(s)                  : 2 channels
    Channel positions           : Front: L R
    Sampling rate               : 48.0 KHz
    Compression mode            : Lossy
    Title                       : Audio
    Language                    : Japanese
    Default                     : Yes
    Forced                      : Yes
    
    Text #1
    ID                          : 3
    Format                      : ASS
    Codec ID                    : S_TEXT/ASS
    Codec ID/Info               : Advanced Sub Station Alpha
    Compression mode            : Lossless
    Title                       : Farbsub
    Language                    : German
    Default                     : No
    Forced                      : Yes
    
    Text #2
    ID                          : 4
    Format                      : ASS
    Codec ID                    : S_TEXT/ASS
    Codec ID/Info               : Advanced Sub Station Alpha
    Compression mode            : Lossless
    Title                       : Kein Farbsub
    Language                    : German
    Default                     : Yes
    Forced                      : Yes
    
    Menu
    00:00:00.000                : de:Einleitung
    00:04:58.965                : de:Hauptteil
    00:21:59.944                : :Ending
    00:23:29.950                : de:Vorschau


    Alle Mirrors untereinander kompatibel
    Folgen einzeln ladbar
    Folge 5/12 online


    Download

    Geschützter Bereich - Bedanke dich beim Poster, um den Bereich sehen zu können
    Hier erfährst Du wie Du Dich bedanken kannst oder werde jetzt Premium Mitglied ab einer Spende von 5€ und erhalte sofortigen Zugriff auf den Downloadbereich!





    Geändert von so1k (12. October 2016 um 20:11 Uhr) Grund: folge 5 hinzugefügt

    [Links sind nur für registrierte und aktivierte Nutzer sichtbar. Klicke hier um dich zu registrieren.]

    Ich wäre allen sehr dankbar, die mir gravierende Fehler in meinen Releases per PN melden

  4. 12 Benutzer sagen Danke:

    AngelNine (12. October 2015),DJPAUL1990 (17. December 2015),Drachengott (17. October 2015),heikobaer (30. January 2016),Ignasum (4. April 2016),Max13493 (11. October 2015),Murtagks (9. December 2015),OtakuTim (2. November 2015),SONNYxq (2. November 2015),tokyodrift (2. November 2015),Valetinese (9. December 2015),Zap (14. October 2015)

  5. #3
    United we Stand Avatar von 00Ryuji00
    Registriert seit
    Oct 2012
    Beiträge
    3.902
    Punkte
    100.019
    Errungenschaften:
    TomodachisGang LeaderHikikomoriTagger Amateur50000 Erfahrungspunkte

    AW: Heavy Object [Jap-Dub][Ger-Sub][720p][8Bit/10Bit][HDTV] - Chinurarete-Subs

    Folge 2 online ~
    !!!Alle Anliegen bezüglich Uploads werden nur mit direktem Threadlink zum Angebot bearbeitet!!!

    Re-Uploadanfragen nur per PN - Ihr könnt mir auch Listen schicken

    Re-Uploads erfolgen meist innerhalb 24h, kann aber auch bis zu 7 Tage dauern

    [Links sind nur für registrierte und aktivierte Nutzer sichtbar. Klicke hier um dich zu registrieren.] | [Links sind nur für registrierte und aktivierte Nutzer sichtbar. Klicke hier um dich zu registrieren.] | >[Links sind nur für registrierte und aktivierte Nutzer sichtbar. Klicke hier um dich zu registrieren.]<
    [Links sind nur für registrierte und aktivierte Nutzer sichtbar. Klicke hier um dich zu registrieren.]

  6. #4
    Uploader Avatar von Filbo11
    Registriert seit
    Jan 2015
    Beiträge
    931
    Punkte
    17.281
    Errungenschaften:
    TomodachisErste Gruppe1 Jahr registriertCreated Album picturesTagger First Class

    AW: Heavy Object [Jap-Dub][Ger-Sub][720p][8Bit/10Bit][HDTV] - Chinurarete-Subs

    folge 3 hinzugefügt

    [Links sind nur für registrierte und aktivierte Nutzer sichtbar. Klicke hier um dich zu registrieren.]

    Ich wäre allen sehr dankbar, die mir gravierende Fehler in meinen Releases per PN melden

  7. 1 Benutzer sagt Danke:

    tokyodrift (2. November 2015)

  8. #5
    Uploader Avatar von Filbo11
    Registriert seit
    Jan 2015
    Beiträge
    931
    Punkte
    17.281
    Errungenschaften:
    TomodachisErste Gruppe1 Jahr registriertCreated Album picturesTagger First Class

    AW: Heavy Object [Jap-Dub][Ger-Sub][720p][8Bit/10Bit][HDTV] - Chinurarete-Subs

    folge 4 hinzugefügt

    [Links sind nur für registrierte und aktivierte Nutzer sichtbar. Klicke hier um dich zu registrieren.]

    Ich wäre allen sehr dankbar, die mir gravierende Fehler in meinen Releases per PN melden

Lesezeichen

Berechtigungen

  • Neue Themen erstellen: Nein
  • Themen beantworten: Nein
  • Anhänge hochladen: Nein
  • Beiträge bearbeiten: Nein
  •  

1 2 3 4 5 6 7 8 9 10 11 12 13 14 15 16 17 18 19 20 21 22 23 24 25 26 27 28 29 30 31 32 33 34 35 36 37 38 39 40 41 42 43 44 45 46 47 48 49 50 51 52 53 54 55 56 57 58 59 60 61 62 63 64 65 66 67 68 69 70 71 72 73 74 75 76 77 78 79 80 81 82 83 84 85 86 87 88 89 90 91 92 93 94 95 96 97 98 99 100 101 102 103 104 105 106 107 108 109 110 111 112 113 114 115 116 117 118 119 120 121 122 123 124 125 126 127 128 129 130 131 132 133 134 135 136 137 138 139 140 141 142 143 144 145 146 147 148 149 150 151 152 153 154 155 156 157 158