Ergebnis 1 bis 5 von 5

Thema: Heavy Object [Laufend][JapDub][GerSub][720p][HDTV] - NKDE

Dieser Thread wurde noch nicht bewertet. Bewerte ihn doch, wenn er dir gefällt!
  1. #1
    Erfahrener Otaku Avatar von DjRayleigh
    Registriert seit
    Jul 2015
    Beiträge
    195
    Punkte
    2.962
    Errungenschaften:
    1000 ErfahrungspunkteHyperaktivErste GruppeTomodachisSenpai

    Heavy Object [Laufend][JapDub][GerSub][720p][HDTV] - NKDE


    Heavy Object
    ヘヴィーオブジェクト






    Kurzbeschreibung:
    Zitat Zitat von AniSearch.com
    Heavy Objects sind riesige menschengesteuerte Maschinen, die in den Kriegen zwischen den Ländern gegeneinander kämpfen. Bei einer dieser Schlachten wird BABY MAGNUM, das Heavy Object der Nation Legitimate Kingdom, zerstört und seine Pilotin Milinda Brantini, von allen nur "Prinzessin" genannt, gefangen genommen. Trotz des Rückzugbefehls weigert sich Quensar Bourbotage seine Kameradin einfach so aufzugeben und macht sich mit seinem Freund Heivia Winchell auf den Weg, um sich den Feinden und ihrem unbezwingbaren Heavy Object zu stellen und die Prinzessin zu retten.


    Spieldauer: 24min
    Genre: Actiondrama
    Nebengenres: Abenteuer, Action, Drama, Ecchi, Mecha, Scifi
    Jahr: 2015
    Sprache: Japanisch
    Untertitel: Deutsch
    Größe pro Folge: ~347 MiB
    Episodenanzahl: 16/24
    Format: MP4
    Auflösung: 720p (16:9)
    Videocodec: x264 (AVC)
    Audiocodec: AAC
    Releasegruppe: NKDE
    Hoster: Uploaded


    MediaInfo
    Code:
    
    Format                                   : MPEG-4
    Format profile                           : Base Media / Version 2
    Codec ID                                 : mp42
    File size                                : 347 MiB
    Duration                                 : 24mn 0s
    Overall bit rate mode                    : Variable
    Overall bit rate                         : 2 023 Kbps
    Movie name                               : [Garuda-Raws]
    Encoded date                             : UTC 2016-03-11 21:52:17
    Tagged date                              : UTC 2016-03-11 22:44:35
    Writing application                      : HandBrake 0.9.9 2013052900
    
    Video
    ID                                       : 1
    Format                                   : AVC
    Format/Info                              : Advanced Video Codec
    Format profile                           : [email protected]
    Format settings, CABAC                   : Yes
    Format settings, ReFrames                : 4 frames
    Codec ID                                 : avc1
    Codec ID/Info                            : Advanced Video Coding
    Duration                                 : 24mn 0s
    Bit rate                                 : 1 858 Kbps
    Width                                    : 1 280 pixels
    Height                                   : 720 pixels
    Display aspect ratio                     : 16:9
    Frame rate mode                          : Variable
    Frame rate                               : 23.976 fps
    Minimum frame rate                       : 6.849 fps
    Maximum frame rate                       : 24.390 fps
    Color space                              : YUV
    Chroma subsampling                       : 4:2:0
    Bit depth                                : 8 bits
    Scan type                                : Progressive
    Bits/(Pixel*Frame)                       : 0.084
    Stream size                              : 319 MiB (92%)
    Writing library                          : x264 core 130 r2273 b3065e6
    Encoding settings                        : cabac=1 / ref=1 / deblock=1:0:0 / analyse=0x1:0x111 / me=hex / subme=2 / psy=1 / psy_rd=1.00:0.00 / mixed_ref=0 / me_range=16 / chroma_me=1 / trellis=0 / 8x8dct=0 / cqm=0 / deadzone=21,11 / fast_pskip=1 / chroma_qp_offset=0 / threads=3 / lookahead_threads=1 / sliced_threads=0 / nr=0 / decimate=1 / interlaced=0 / bluray_compat=0 / constrained_intra=0 / bframes=3 / b_pyramid=2 / b_adapt=1 / b_bias=0 / direct=1 / weightb=1 / open_gop=0 / weightp=1 / keyint=240 / keyint_min=24 / scenecut=40 / intra_refresh=0 / rc_lookahead=10 / rc=crf / mbtree=1 / crf=20.0 / qcomp=0.60 / qpmin=0 / qpmax=69 / qpstep=4 / vbv_maxrate=20000 / vbv_bufsize=25000 / crf_max=0.0 / nal_hrd=none / ip_ratio=1.40 / aq=1:1.00
    Encoded date                             : UTC 2016-03-11 21:52:17
    Tagged date                              : UTC 2016-03-11 22:44:35
    Color range                              : Limited
    Color primaries                          : BT.709
    Transfer characteristics                 : BT.709
    Matrix coefficients                      : BT.709
    
    Audio
    ID                                       : 2
    Format                                   : AAC
    Format/Info                              : Advanced Audio Codec
    Format profile                           : LC
    Codec ID                                 : 40
    Duration                                 : 23mn 59s
    Bit rate mode                            : Variable
    Bit rate                                 : 160 Kbps
    Maximum bit rate                         : 341 Kbps
    Channel(s)                               : 2 channels
    Channel positions                        : Front: L R
    Sampling rate                            : 48.0 KHz
    Compression mode                         : Lossy
    Stream size                              : 27.5 MiB (8%)
    Title                                    : Stereo
    Language                                 : Japanese
    Encoded date                             : UTC 2016-03-11 21:52:17
    Tagged date                              : UTC 2016-03-11 22:44:33
    
    





    Geschützter Bereich - Bedanke dich beim Poster, um den Bereich sehen zu können
    Hier erfährst Du wie Du Dich bedanken kannst oder werde jetzt Premium Mitglied ab einer Spende von 5€ und erhalte sofortigen Zugriff auf den Downloadbereich!

    [Links sind nur für registrierte und aktivierte Nutzer sichtbar. Klicke hier um dich zu registrieren.]
    Geändert von DjRayleigh (30. July 2016 um 00:05 Uhr) Grund: E16

    [Links sind nur für registrierte und aktivierte Nutzer sichtbar. Klicke hier um dich zu registrieren.]
    Support über PN
    =
    AKTIV

  2. 17 Benutzer sagen Danke:

    Arekusu (20. September 2016),Asuka Langley (6. May 2016),GammaWar (7. November 2016),heikobaer (30. July 2016),Hyro (27. July 2016),Ignasum (6. August 2016),imnuan (11. June 2016),IshiFuroito (18. October 2016),Junns (23. October 2016),Knuddelbearli (23. October 2016),Kristero (25. September 2016),mariokeks (5. September 2016),Mr.Shit (4. September 2016),Nijazi2000 (25. September 2016),old nick (30. July 2016),Ronae (4. May 2016),xEssentiaLx (15. October 2016)

  3. #2
    Erfahrener Otaku Avatar von DjRayleigh
    Registriert seit
    Jul 2015
    Beiträge
    195
    Punkte
    2.962
    Errungenschaften:
    1000 ErfahrungspunkteHyperaktivErste GruppeTomodachisSenpai

    AW: Heavy Object [Laufend][JapDub][GerSub][720p][HDTV] - NKDE

    Update : Folge 9

    [Links sind nur für registrierte und aktivierte Nutzer sichtbar. Klicke hier um dich zu registrieren.]
    Support über PN
    =
    AKTIV

  4. #3
    Erfahrener Otaku Avatar von DjRayleigh
    Registriert seit
    Jul 2015
    Beiträge
    195
    Punkte
    2.962
    Errungenschaften:
    1000 ErfahrungspunkteHyperaktivErste GruppeTomodachisSenpai

    AW: Heavy Object [Laufend][JapDub][GerSub][720p][HDTV] - NKDE

    Update : Folge 10

    [Links sind nur für registrierte und aktivierte Nutzer sichtbar. Klicke hier um dich zu registrieren.]
    Support über PN
    =
    AKTIV

  5. #4
    Erfahrener Otaku Avatar von DjRayleigh
    Registriert seit
    Jul 2015
    Beiträge
    195
    Punkte
    2.962
    Errungenschaften:
    1000 ErfahrungspunkteHyperaktivErste GruppeTomodachisSenpai

    AW: Heavy Object [Laufend][JapDub][GerSub][720p][HDTV] - NKDE

    Update: Folge 11 (;

    [Links sind nur für registrierte und aktivierte Nutzer sichtbar. Klicke hier um dich zu registrieren.]
    Support über PN
    =
    AKTIV

  6. #5
    Erfahrener Otaku Avatar von DjRayleigh
    Registriert seit
    Jul 2015
    Beiträge
    195
    Punkte
    2.962
    Errungenschaften:
    1000 ErfahrungspunkteHyperaktivErste GruppeTomodachisSenpai

    AW: Heavy Object [Laufend][JapDub][GerSub][720p][HDTV] - NKDE

    Update : Folge 12-16

    [Links sind nur für registrierte und aktivierte Nutzer sichtbar. Klicke hier um dich zu registrieren.]
    Support über PN
    =
    AKTIV

Lesezeichen

Berechtigungen

  • Neue Themen erstellen: Nein
  • Themen beantworten: Nein
  • Anhänge hochladen: Nein
  • Beiträge bearbeiten: Nein
  •  

1 2 3 4 5 6 7 8 9 10 11 12 13 14 15 16 17 18 19 20 21 22 23 24 25 26 27 28 29 30 31 32 33 34 35 36 37 38 39 40 41 42 43 44 45 46 47 48 49 50 51 52 53 54 55 56 57 58 59 60 61 62 63 64 65 66 67 68 69 70 71 72 73 74 75 76 77 78 79 80 81 82 83 84 85 86 87 88 89 90 91 92 93 94 95 96 97 98 99 100 101 102 103 104 105 106 107 108 109 110 111 112 113 114 115 116 117 118 119 120 121 122 123 124 125 126 127 128 129 130 131 132 133 134 135 136 137 138 139 140 141 142 143 144 145 146 147 148 149 150 151 152 153 154 155 156 157 158