Ergebnis 1 bis 1 von 1

Thema: High School DxD BorN: Yomigaeranai Fushichou [Jap-Dub][Ger-Sub][720p-8Bit/10Bit][1080p-10Bit][BluRay] - KaHo & FB

Dieser Thread wurde noch nicht bewertet. Bewerte ihn doch, wenn er dir gefällt!
  1. #1
    Uploader Avatar von Filbo11
    Registriert seit
    Jan 2015
    Beiträge
    926
    Punkte
    17.174
    Errungenschaften:
    TomodachisErste Gruppe1 Jahr registriertCreated Album picturesTagger First Class

    High School DxD BorN: Yomigaeranai Fushichou [Jap-Dub][Ger-Sub][720p-8Bit/10Bit][1080p-10Bit][BluRay] - KaHo & FB

    High School DxD BorN: Yomigaeranai Fushichou
    ハイスクールDxD BorN 蘇らない不死鳥
    Highschool DxD BorN OVA
    High School DxD BorN Episode 13




    Beschreibung

    Issei wird von Ravel gebeten, ihren Bruder Riser, Rias Ex-Verlobten, von seiner Drachenangst zu befreien.
    Dafür nimmt er ihn mit auf ein Training in die Berge, in die Nähe eines Drachennestes.


    Format: mp4 [720p 8Bit] / mkv [720p/1080p 10Bit]
    Dauer: ca. 23 min
    Größe: ca. 579 MB [720p 8Bit] / 756 MB [720p 10Bit] / 1,52 GB [1080p 10Bit]
    Episodenanzahl: 1/1
    Sprache: Japanisch
    Untertitel: Deutsch
    Group: [Kami Honyaku] & [FB]
    Hoster: Uploaded.net & Share-Online.biz
    kein PW


    Screenshots & MediaInfo

    720p 8Bit
    [Links sind nur für registrierte und aktivierte Nutzer sichtbar. Klicke hier um dich zu registrieren.]

    Code:
    General
    Complete name               : [KaHo] & [FB] High School DxD BorN [OVA] (BD 720p x264 AAC).mp4
    Format                      : MPEG-4
    Format profile              : Base Media
    Codec ID                    : isom (isom)
    File size                   : 579 MiB
    Duration                    : 23mn 47s
    Overall bit rate mode       : Variable
    Overall bit rate            : 3 405 Kbps
    Encoded date                : UTC 2016-04-02 14:00:57
    Tagged date                 : UTC 2016-04-02 14:00:57
    Writing application         : Yamb 2.1.0.0 [http://yamb.unite-video.com]
    
    Video
    ID                          : 1
    Format                      : AVC
    Format/Info                 : Advanced Video Codec
    Format profile              : [email protected]
    Format settings, CABAC      : Yes
    Format settings, ReFrames   : 9 frames
    Codec ID                    : avc1
    Codec ID/Info               : Advanced Video Coding
    Duration                    : 23mn 28s
    Bit rate                    : 3 139 Kbps
    Maximum bit rate            : 12.2 Mbps
    Width                       : 1 280 pixels
    Height                      : 720 pixels
    Display aspect ratio        : 16:9
    Frame rate mode             : Constant
    Frame rate                  : 23.976 (24000/1001) fps
    Color space                 : YUV
    Chroma subsampling          : 4:2:0
    Bit depth                   : 8 bits
    Scan type                   : Progressive
    Bits/(Pixel*Frame)          : 0.142
    Stream size                 : 527 MiB (91%)
    Writing library             : x264 core 148 r2665kMod a01e339
    Encoding settings           : cabac=1 / ref=9 / deblock=1:1:1 / analyse=0x3:0x133 / me=umh / subme=8 / psy=1 / fade_compensate=0.00 / psy_rd=0.40:0.10 / mixed_ref=1 / me_range=24 / chroma_me=1 / trellis=2 / 8x8dct=1 / cqm=0 / deadzone=21,11 / fast_pskip=0 / chroma_qp_offset=-3 / threads=6 / lookahead_threads=3 / sliced_threads=0 / nr=0 / decimate=0 / interlaced=0 / bluray_compat=0 / constrained_intra=0 / fgo=0 / bframes=16 / b_pyramid=2 / b_adapt=2 / b_bias=0 / direct=3 / weightb=1 / open_gop=0 / weightp=2 / keyint=250 / keyint_min=23 / scenecut=40 / intra_refresh=0 / rc_lookahead=60 / rc=crf / mbtree=1 / crf=18.0000 / qcomp=0.80 / qpmin=0 / qpmax=69 / qpstep=4 / ip_ratio=1.40 / aq=3:0.80
    Language                    : Japanese
    Encoded date                : UTC 2016-04-03 10:09:42
    Tagged date                 : UTC 2016-04-02 14:00:58
    Color range                 : Limited
    Color primaries             : BT.709
    Transfer characteristics    : BT.709
    Matrix coefficients         : BT.709
    
    Audio
    ID                          : 2
    Format                      : AAC
    Format/Info                 : Advanced Audio Codec
    Format profile              : LC
    Codec ID                    : 40
    Duration                    : 23mn 47s
    Bit rate mode               : Variable
    Bit rate                    : 304 Kbps
    Maximum bit rate            : 377 Kbps
    Channel(s)                  : 2 channels
    Channel positions           : Front: L R
    Sampling rate               : 48.0 KHz
    Frame rate                  : 46.875 fps (1024 spf)
    Compression mode            : Lossy
    Stream size                 : 51.8 MiB (9%)
    Language                    : Japanese
    Encoded date                : UTC 2016-04-02 14:00:57
    Tagged date                 : UTC 2016-04-02 14:00:58


    720p 10Bit
    [Links sind nur für registrierte und aktivierte Nutzer sichtbar. Klicke hier um dich zu registrieren.]

    Code:
    General
    
    Complete name               : [KaHo] & [FB] High School DxD BorN [OVA] (BD 720p 10Bit x264 AAC).mkv
    Format                      : Matroska
    Format version              : Version 4 / Version 2
    File size                   : 757 MiB
    Duration                    : 23mn 47s
    Overall bit rate            : 4 448 Kbps
    Movie name                  : [KaHo] & [FB] High School DxD BorN [OVA] (BD 720p 10Bit x264 AAC)
    Encoded date                : UTC 2016-04-03 08:28:08
    Writing application         : mkvmerge v9.0.1 ('Obstacles') 64bit
    Writing library             : libebml v1.3.3 + libmatroska v1.4.4
    
    Video
    ID                          : 1
    Format                      : AVC
    Format/Info                 : Advanced Video Codec
    Format profile              : High [email protected]
    Format settings, CABAC      : Yes
    Format settings, ReFrames   : 16 frames
    Codec ID                    : V_MPEG4/ISO/AVC
    Duration                    : 23mn 28s
    Bit rate                    : 4 198 Kbps
    Width                       : 1 280 pixels
    Height                      : 720 pixels
    Display aspect ratio        : 16:9
    Frame rate mode             : Constant
    Frame rate                  : 23.976 (24000/1001) fps
    Color space                 : YUV
    Chroma subsampling          : 4:2:0
    Bit depth                   : 10 bits
    Scan type                   : Progressive
    Bits/(Pixel*Frame)          : 0.190
    Stream size                 : 705 MiB (93%)
    Title                       : [KaHo] & [FB]
    Writing library             : x264 core 148 r2665kMod a01e339
    Encoding settings           : cabac=1 / ref=16 / deblock=1:1:1 / analyse=0x3:0x133 / me=umh / subme=11 / psy=1 / fade_compensate=0.00 / psy_rd=0.40:0.10 / mixed_ref=1 / me_range=32 / chroma_me=1 / trellis=2 / 8x8dct=1 / cqm=0 / deadzone=21,11 / fast_pskip=0 / chroma_qp_offset=-3 / threads=6 / lookahead_threads=1 / sliced_threads=0 / nr=0 / decimate=0 / interlaced=0 / bluray_compat=0 / constrained_intra=0 / fgo=0 / bframes=16 / b_pyramid=2 / b_adapt=2 / b_bias=0 / direct=3 / weightb=1 / open_gop=0 / weightp=2 / keyint=250 / keyint_min=23 / scenecut=40 / intra_refresh=0 / rc_lookahead=60 / rc=crf / mbtree=1 / crf=16.0000 / qcomp=0.80 / qpmin=0 / qpmax=81 / qpstep=4 / ip_ratio=1.40 / aq=3:0.80
    Default                     : Yes
    Forced                      : Yes
    Color range                 : Limited
    Color primaries             : BT.709
    Transfer characteristics    : BT.709
    Matrix coefficients         : BT.709
    
    Audio
    ID                          : 2
    Format                      : AAC
    Format/Info                 : Advanced Audio Codec
    Format profile              : LC
    Codec ID                    : A_AAC
    Duration                    : 23mn 47s
    Bit rate                    : 304 Kbps
    Channel(s)                  : 2 channels
    Channel positions           : Front: L R
    Sampling rate               : 48.0 KHz
    Frame rate                  : 46.875 fps (1024 spf)
    Compression mode            : Lossy
    Stream size                 : 51.8 MiB (7%)
    Language                    : Japanese
    Default                     : Yes
    Forced                      : Yes
    
    Menu
    00:00:00.000                : en:Prologue
    00:00:50.050                : en:Opening
    00:02:20.140                : en:Part A
    00:11:37.697                : en:Eyecatch
    00:11:47.707                : en:Part B
    00:21:57.316                : en:Ending


    1080p 10Bit
    [Links sind nur für registrierte und aktivierte Nutzer sichtbar. Klicke hier um dich zu registrieren.]

    Code:
    General
    
    Complete name               : [KaHo] & [FB] High School DxD BorN [OVA] (BD 1080p 10Bit x264 FLAC).mkv
    Format                      : Matroska
    Format version              : Version 4 / Version 2
    File size                   : 1.53 GiB
    Duration                    : 23mn 47s
    Overall bit rate mode       : Variable
    Overall bit rate            : 9 193 Kbps
    Movie name                  : [KaHo] & [FB] High School DxD BorN [OVA] (BD 1080p 10Bit x264 FLAC)
    Encoded date                : UTC 2016-04-02 18:01:12
    Writing application         : mkvmerge v9.0.1 ('Obstacles') 64bit
    Writing library             : libebml v1.3.3 + libmatroska v1.4.4
    
    Video
    ID                          : 1
    Format                      : AVC
    Format/Info                 : Advanced Video Codec
    Format profile              : High [email protected]
    Format settings, CABAC      : Yes
    Format settings, ReFrames   : 16 frames
    Codec ID                    : V_MPEG4/ISO/AVC
    Duration                    : 23mn 28s
    Bit rate                    : 8 557 Kbps
    Width                       : 1 920 pixels
    Height                      : 1 080 pixels
    Display aspect ratio        : 16:9
    Frame rate mode             : Constant
    Frame rate                  : 23.976 (24000/1001) fps
    Color space                 : YUV
    Chroma subsampling          : 4:2:0
    Bit depth                   : 10 bits
    Scan type                   : Progressive
    Bits/(Pixel*Frame)          : 0.172
    Stream size                 : 1.40 GiB (92%)
    Title                       : [KaHo] & [FB]
    Writing library             : x264 core 148 r2665kMod a01e339
    Encoding settings           : cabac=1 / ref=16 / deblock=1:1:1 / analyse=0x3:0x133 / me=umh / subme=11 / psy=1 / fade_compensate=0.00 / psy_rd=0.40:0.10 / mixed_ref=1 / me_range=32 / chroma_me=1 / trellis=2 / 8x8dct=1 / cqm=0 / deadzone=21,11 / fast_pskip=0 / chroma_qp_offset=-3 / threads=6 / lookahead_threads=1 / sliced_threads=0 / nr=0 / decimate=0 / interlaced=0 / bluray_compat=0 / constrained_intra=0 / fgo=0 / bframes=16 / b_pyramid=2 / b_adapt=2 / b_bias=0 / direct=3 / weightb=1 / open_gop=0 / weightp=2 / keyint=250 / keyint_min=23 / scenecut=40 / intra_refresh=0 / rc_lookahead=60 / rc=crf / mbtree=1 / crf=16.0000 / qcomp=0.80 / qpmin=0 / qpmax=81 / qpstep=4 / ip_ratio=1.40 / aq=3:0.80
    Default                     : Yes
    Forced                      : Yes
    Color range                 : Limited
    Color primaries             : BT.709
    Transfer characteristics    : BT.709
    Matrix coefficients         : BT.709
    
    Audio
    ID                          : 2
    Format                      : FLAC
    Format/Info                 : Free Lossless Audio Codec
    Codec ID                    : A_FLAC
    Duration                    : 23mn 47s
    Bit rate mode               : Variable
    Bit rate                    : 749 Kbps
    Channel(s)                  : 2 channels
    Channel positions           : Front: L R
    Sampling rate               : 48.0 KHz
    Frame rate                  : 10.417 fps (4608 spf)
    Bit depth                   : 16 bits
    Stream size                 : 127 MiB (8%)
    Writing library             : Lavf57.26.100
    Language                    : Japanese
    Default                     : Yes
    Forced                      : Yes
    
    Menu
    00:00:00.000                : en:Prologue
    00:00:50.050                : en:Opening
    00:02:20.140                : en:Part A
    00:11:37.697                : en:Eyecatch
    00:11:47.707                : en:Part B
    00:21:57.316                : en:Ending


    Alle Mirrors untereinander kompatibel
    Folgen einzeln ladbar


    Download
    Geschützter Bereich - Bedanke dich beim Poster, um den Bereich sehen zu können
    Hier erfährst Du wie Du Dich bedanken kannst oder werde jetzt Premium Mitglied ab einer Spende von 5€ und erhalte sofortigen Zugriff auf den Downloadbereich!



    Geändert von Filbo11 (12. April 2016 um 09:15 Uhr)

    [Links sind nur für registrierte und aktivierte Nutzer sichtbar. Klicke hier um dich zu registrieren.]

    Ich wäre allen sehr dankbar, die mir gravierende Fehler in meinen Releases per PN melden

  2. 35 Benutzer sagen Danke:

    Ace360 (18. August 2016),Asuka Langley (5. April 2016),Bloodrevenge (30. April 2016),Bloody Shion (6. April 2016),CKSI (3. April 2016),E4GLE (4. April 2016),EmeralX4 (3. April 2016),EngelEatos (3. April 2016),foiderbua (4. April 2016),Ghostraven (3. April 2016),heikobaer (4. April 2016),Hisamaki (4. April 2016),JCD (10. April 2016),kashmael (4. April 2016),Lux49 (25. May 2016),manuel4193 (3. April 2016),midnighter (12. April 2016),Nanatzusaya (3. April 2016),okzide (4. April 2016),old nick (3. April 2016),Patrick1990 (3. April 2016),Ravyn2805 (6. April 2016),realmadridcf (7. April 2016),Regi (4. April 2016),Rias10000 (2. June 2016),rinnegan93 (19. November 2016),Ronae (4. April 2016),Roxy (13. April 2016),SONNYxq (5. April 2016),Suigetsu (4. April 2016),Tekk (4. April 2016),Windwusel (3. April 2016),yoda85 (3. April 2016),Zelpik (19. May 2016),zulamman (11. May 2016)

Stichworte

Lesezeichen

Berechtigungen

  • Neue Themen erstellen: Nein
  • Themen beantworten: Nein
  • Anhänge hochladen: Nein
  • Beiträge bearbeiten: Nein
  •  

1 2 3 4 5 6 7 8 9 10 11 12 13 14 15 16 17 18 19 20 21 22 23 24 25 26 27 28 29 30 31 32 33 34 35 36 37 38 39 40 41 42 43 44 45 46 47 48 49 50 51 52 53 54 55 56 57 58 59 60 61 62 63 64 65 66 67 68 69 70 71 72 73 74 75 76 77 78 79 80 81 82 83 84 85 86 87 88 89 90 91 92 93 94 95 96 97 98 99 100 101 102 103 104 105 106 107 108 109 110 111 112 113 114 115 116 117 118 119 120 121 122 123 124 125 126 127 128 129 130 131 132 133 134 135 136 137 138 139 140 141 142 143 144 145 146 147 148 149 150 151 152 153 154 155 156 157 158