Ergebnis 1 bis 1 von 1

Thema: High School DxD New: Teishi Kyoushitsu no Vampire [Jap-Dub][Ger-Sub][720p][BluRay] -NKDE

Dieser Thread wurde noch nicht bewertet. Bewerte ihn doch, wenn er dir gefällt!
  1. #1
    Avatar von Stoneman
    Registriert seit
    Jun 2013
    Ort
    Sachsen
    Beiträge
    324
    Punkte
    5.972
    Errungenschaften:
    TomodachisTagger Amateur5000 ErfahrungspunkteHikikomori

    High School DxD New: Teishi Kyoushitsu no Vampire [Jap-Dub][Ger-Sub][720p][BluRay] -NKDE

    High School DxD New: Teishi Kyoushitsu no Vampire

    ハイスクールDxD NEW 停止教室のヴァンパイア
    High School DxD New OVA


    [Links sind nur für registrierte und aktivierte Nutzer sichtbar. Klicke hier um dich zu registrieren.]


    Kurzbeschreibung:
    OVA zur 2. Staffel


    Spieldauer: 24min
    Genre: Actionkomödie
    Nebengenres: Action, Ecchi, Fantasy, Harem, Komödie, Männlich, Romanze
    Jahr: 2015
    Sprache: Japanisch
    Untertitel: Deutsch
    Größe pro Folge: ~266mb
    Episodenanzahl: 1/1
    Format: mp4
    Auflösung: 1280:720
    Videocodec: AVC
    Audiocodec: AAC
    Releasegruppe: [NKDE]
    Hoster: Uploaded,Share-Online


    MediaInfo

    Code:
    
    General
    Complete name                  : I:\Anime\High School DxD\S2\[NKDE-Subs] Highschool DxD NEW - OVA 01 Ger Sub.mp4
    Format                         : MPEG-4
    Format profile                 : Base Media / Version 2
    Codec ID                       : mp42
    File size                      : 267 MiB
    Duration                       : 23mn 41s
    Overall bit rate mode          : Variable
    Overall bit rate               : 1 576 Kbps
    Encoded date                   : UTC 2015-04-19 14:18:06
    Tagged date                    : UTC 2015-04-19 15:18:05
    Writing application            : HandBrake 0.9.9 2013052900
    
    Video
    ID                             : 1
    Format                         : AVC
    Format/Info                    : Advanced Video Codec
    Format profile                 : [email protected]
    Format settings, CABAC         : Yes
    Format settings, ReFrames      : 4 frames
    Codec ID                       : avc1
    Codec ID/Info                  : Advanced Video Coding
    Duration                       : 23mn 41s
    Bit rate                       : 1 410 Kbps
    Width                          : 1 280 pixels
    Height                         : 720 pixels
    Display aspect ratio           : 16:9
    Frame rate mode                : Variable
    Frame rate                     : 23.976 fps
    Minimum frame rate             : 23.810 fps
    Maximum frame rate             : 24.390 fps
    Color space                    : YUV
    Chroma subsampling             : 4:2:0
    Bit depth                      : 8 bits
    Scan type                      : Progressive
    Bits/(Pixel*Frame)             : 0.064
    Stream size                    : 239 MiB (90%)
    Writing library                : x264 core 130 r2273 b3065e6
    Encoding settings              : cabac=1 / ref=1 / deblock=1:0:0 / analyse=0x1:0x111 / me=hex / subme=2 / psy=1 / psy_rd=1.00:0.00 / mixed_ref=0 / me_range=16 / chroma_me=1 / trellis=0 / 8x8dct=0 / cqm=0 / deadzone=21,11 / fast_pskip=1 / chroma_qp_offset=0 / threads=3 / lookahead_threads=1 / sliced_threads=0 / nr=0 / decimate=1 / interlaced=0 / bluray_compat=0 / constrained_intra=0 / bframes=3 / b_pyramid=2 / b_adapt=1 / b_bias=0 / direct=1 / weightb=1 / open_gop=0 / weightp=1 / keyint=240 / keyint_min=24 / scenecut=40 / intra_refresh=0 / rc_lookahead=10 / rc=crf / mbtree=1 / crf=20.0 / qcomp=0.60 / qpmin=0 / qpmax=69 / qpstep=4 / vbv_maxrate=20000 / vbv_bufsize=25000 / crf_max=0.0 / nal_hrd=none / ip_ratio=1.40 / aq=1:1.00
    Encoded date                   : UTC 2015-04-19 14:18:06
    Tagged date                    : UTC 2015-04-19 15:18:05
    Color primaries                : BT.709
    Transfer characteristics       : BT.709
    Matrix coefficients            : BT.709
    
    Audio
    ID                             : 2
    Format                         : AAC
    Format/Info                    : Advanced Audio Codec
    Format profile                 : LC
    Codec ID                       : 40
    Duration                       : 23mn 41s
    Bit rate mode                  : Variable
    Bit rate                       : 160 Kbps
    Maximum bit rate               : 283 Kbps
    Channel(s)                     : 2 channels
    Channel positions              : Front: L R
    Sampling rate                  : 48.0 KHz
    Compression mode               : Lossy
    Stream size                    : 27.1 MiB (10%)
    Language                       : Japanese
    Encoded date                   : UTC 2015-04-19 14:18:06
    Tagged date                    : UTC 2015-04-19 15:18:04
    
    Menu
    ID                             : 3
    Codec ID                       : text
    Duration                       : 23mn 41s
    Encoded date                   : UTC 2015-04-19 14:18:06
    Tagged date                    : UTC 2015-04-19 15:18:05
    Bit rate mode                  : CBR
    
    
    
    
    








    Geschützter Bereich - Bedanke dich beim Poster, um den Bereich sehen zu können
    Hier erfährst Du wie Du Dich bedanken kannst oder werde jetzt Premium Mitglied ab einer Spende von 5€ und erhalte sofortigen Zugriff auf den Downloadbereich!




    [Links sind nur für registrierte und aktivierte Nutzer sichtbar. Klicke hier um dich zu registrieren.]

    ich lade jetzt auch auf SO hoch, bei anfragen bitte melden. ansonsten kommt das mit der zeit automatisch bei meinen upps

  2. 20 Benutzer sagen Danke:

    acer25 (31. August 2016),Cande (26. August 2016),Flowbow (5. November 2016),GammaWar (3. September 2016),heikobaer (30. August 2016),Hi im Shini (31. August 2016),imnuan (13. September 2016),Kaffee333 (1. September 2016),Lautrerbomber (26. August 2016),Niveaulus (22. November 2016),okzide (26. August 2016),Ravyn2805 (3. September 2016),Regi (26. August 2016),rinnegan93 (19. November 2016),Ronae (3. September 2016),Smasher25 (26. August 2016),SnowCat (18. September 2016),Tschu23 (26. August 2016),Xionic (30. August 2016),Zapzerap (30. October 2016)

Lesezeichen

Berechtigungen

  • Neue Themen erstellen: Nein
  • Themen beantworten: Nein
  • Anhänge hochladen: Nein
  • Beiträge bearbeiten: Nein
  •  

1 2 3 4 5 6 7 8 9 10 11 12 13 14 15 16 17 18 19 20 21 22 23 24 25 26 27 28 29 30 31 32 33 34 35 36 37 38 39 40 41 42 43 44 45 46 47 48 49 50 51 52 53 54 55 56 57 58 59 60 61 62 63 64 65 66 67 68 69 70 71 72 73 74 75 76 77 78 79 80 81 82 83 84 85 86 87 88 89 90 91 92 93 94 95 96 97 98 99 100 101 102 103 104 105 106 107 108 109 110 111 112 113 114 115 116 117 118 119 120 121 122 123 124 125 126 127 128 129 130 131 132 133 134 135 136 137 138 139 140 141 142 143 144 145 146 147 148 149 150 151 152 153 154 155 156 157 158