Ergebnis 1 bis 1 von 1

Thema: Hoshizora e Kakaru Hashi + OVA [Jap-Dub][Ger-Sub][1080p][Bluray]

Dieser Thread wurde noch nicht bewertet. Bewerte ihn doch, wenn er dir gefällt!
  1. #1
    United we Stand Avatar von 00Ryuji00
    Registriert seit
    Oct 2012
    Beiträge
    3.902
    Punkte
    99.823
    Errungenschaften:
    TomodachisGang LeaderHikikomoriTagger Amateur50000 Erfahrungspunkte

    Hoshizora e Kakaru Hashi + OVA [Jap-Dub][Ger-Sub][1080p][Bluray]


    Hoshizora e Kakaru Hashi
    星空へ架かる橋
    A Bridge to the Starry Skies






    Kurzbeschreibung:
    Kazuma zieht mit seinem kranken Bruder von der Stadt in ein ländliches Bergdorf, damit sich dieser von seiner Krankheit erholen kann. Eigentlich hatten sie geplant im Hotel ihres Vaters unterzukommen, aber auf dem Weg dahin verlaufen sie sich. Als sie in den Bergen umherirren, stößt Kazuma auf ein Mädchen names Ui Nakatsugawa. Dies ist die erste von vielen Begegnungen in seinem neuen Landleben.


    Sprache: Japanisch
    Untertitel: Deutsch
    Episodenanzahl: 12/12 + 1/1
    Format: .mp4
    Auflösung: 1080p (16:9)
    Codec: x264
    Gruppe: HMO & C-Subs
    Hoster: Share-Online ; Uploaded


    Datei Info:
    Spoiler

    Code:
    
    
    Format                                   : MPEG-4
    Format profile                           : Base Media
    Codec ID                                 : isom
    File size                                : 500 MiB
    Duration                                 : 24mn 25s
    Overall bit rate mode                    : Variable
    Overall bit rate                         : 2 862 Kbps
    Encoded date                             : UTC 2011-10-09 13:01:31
    Tagged date                              : UTC 2011-10-09 13:01:31
    
    Video
    ID                                       : 1
    Format                                   : AVC
    Format/Info                              : Advanced Video Codec
    Format profile                           : [email protected]
    Format settings, CABAC                   : Yes
    Format settings, ReFrames                : 4 frames
    Codec ID                                 : avc1
    Codec ID/Info                            : Advanced Video Coding
    Duration                                 : 24mn 25s
    Bit rate                                 : 2 732 Kbps
    Maximum bit rate                         : 30.0 Mbps
    Width                                    : 1 920 pixels
    Height                                   : 1 080 pixels
    Display aspect ratio                     : 16:9
    Frame rate mode                          : Constant
    Frame rate                               : 23.976 fps
    Color space                              : YUV
    Chroma subsampling                       : 4:2:0
    Bit depth                                : 8 bits
    Scan type                                : Progressive
    Bits/(Pixel*Frame)                       : 0.055
    Stream size                              : 477 MiB (95%)
    Writing library                          : x264 core 116 r2074 2641b9e
    Encoding settings                        : cabac=1 / ref=3 / deblock=1:0:0 / analyse=0x3:0x113 / me=hex / subme=7 / psy=1 / psy_rd=1.00:0.00 / mixed_ref=1 / me_range=16 / chroma_me=1 / trellis=1 / 8x8dct=1 / cqm=0 / deadzone=21,11 / fast_pskip=1 / chroma_qp_offset=-2 / threads=12 / sliced_threads=0 / nr=0 / decimate=1 / interlaced=0 / bluray_compat=0 / constrained_intra=0 / bframes=3 / b_pyramid=2 / b_adapt=1 / b_bias=0 / direct=1 / weightb=1 / open_gop=0 / weightp=2 / keyint=250 / keyint_min=23 / scenecut=40 / intra_refresh=0 / rc_lookahead=40 / rc=2pass / mbtree=1 / bitrate=2732 / ratetol=1.0 / qcomp=0.60 / qpmin=10 / qpmax=51 / qpstep=4 / cplxblur=20.0 / qblur=0.5 / vbv_maxrate=31250 / vbv_bufsize=31250 / nal_hrd=none / ip_ratio=1.40 / aq=1:1.00
    Encoded date                             : UTC 2011-10-08 23:04:05
    Tagged date                              : UTC 2011-10-09 13:01:52
    
    Audio
    ID                                       : 2
    Format                                   : AAC
    Format/Info                              : Advanced Audio Codec
    Format profile                           : HE-AAC / LC
    Codec ID                                 : 40
    Duration                                 : 24mn 25s
    Bit rate mode                            : Variable
    Bit rate                                 : 128 Kbps
    Maximum bit rate                         : 151 Kbps
    Channel count                            : 2 channels
    Channel positions                        : Front: L R
    Sampling rate                            : 48.0 KHz / 24.0 KHz
    Compression mode                         : Lossy
    Stream size                              : 22.4 MiB (4%)
    Language                                 : Japanese
    Encoded date                             : UTC 2011-10-09 13:01:52
    Tagged date                              : UTC 2011-10-09 13:01:52
    
    






    Geschützter Bereich - Bedanke dich beim Poster, um den Bereich sehen zu können
    Hier erfährst Du wie Du Dich bedanken kannst oder werde jetzt Premium Mitglied ab einer Spende von 5€ und erhalte sofortigen Zugriff auf den Downloadbereich!

    !!!Alle Anliegen bezüglich Uploads werden nur mit direktem Threadlink zum Angebot bearbeitet!!!

    Re-Uploadanfragen nur per PN - Ihr könnt mir auch Listen schicken

    Re-Uploads erfolgen meist innerhalb 24h, kann aber auch bis zu 7 Tage dauern

    [Links sind nur für registrierte und aktivierte Nutzer sichtbar. Klicke hier um dich zu registrieren.] | [Links sind nur für registrierte und aktivierte Nutzer sichtbar. Klicke hier um dich zu registrieren.] | >[Links sind nur für registrierte und aktivierte Nutzer sichtbar. Klicke hier um dich zu registrieren.]<
    [Links sind nur für registrierte und aktivierte Nutzer sichtbar. Klicke hier um dich zu registrieren.]

  2. 30 Benutzer sagen Danke:

    animesoulx3 (20. January 2016),bloodyfloh (4. August 2015),Brumme (13. November 2016),Cande (4. August 2015),Corntendo (4. March 2016),doN1337 (25. November 2015),dreambird1973 (21. December 2015),Gatti1983 (24. December 2015),Griever (25. July 2016),krasserGaul (9. October 2015),Kurzey (22. August 2015),Magikarp (29. November 2015),manninator (14. September 2015),MatrixEsl (30. January 2016),McZeRo (22. April 2016),midnighter (5. August 2015),Murtagks (21. April 2016),Noire16 (30. January 2016),Otonashi Yuzuru (29. September 2015),Pipsargen (20. September 2015),Rena_Chan (17. April 2016),revil (13. September 2015),Schaedeldecke (17. October 2016),ShiboNoTenshi (29. November 2015),Skelot (27. August 2015),Steüüensturm (11. August 2015),Sylux (3. September 2015),theundead1108 (9. August 2015),TingelN (4. August 2015),xRei (18. October 2015)

Lesezeichen

Berechtigungen

  • Neue Themen erstellen: Nein
  • Themen beantworten: Nein
  • Anhänge hochladen: Nein
  • Beiträge bearbeiten: Nein
  •  

1 2 3 4 5 6 7 8 9 10 11 12 13 14 15 16 17 18 19 20 21 22 23 24 25 26 27 28 29 30 31 32 33 34 35 36 37 38 39 40 41 42 43 44 45 46 47 48 49 50 51 52 53 54 55 56 57 58 59 60 61 62 63 64 65 66 67 68 69 70 71 72 73 74 75 76 77 78 79 80 81 82 83 84 85 86 87 88 89 90 91 92 93 94 95 96 97 98 99 100 101 102 103 104 105 106 107 108 109 110 111 112 113 114 115 116 117 118 119 120 121 122 123 124 125 126 127 128 129 130 131 132 133 134 135 136 137 138 139 140 141 142 143 144 145 146 147 148 149 150 151 152 153 154 155 156 157 158