Ergebnis 1 bis 5 von 5

Thema: Hundred [Jap-Dub][Ger-Sub][720p-8Bit/10Bit][HDTV] - KaHo

Dieser Thread wurde noch nicht bewertet. Bewerte ihn doch, wenn er dir gefällt!
  1. #1
    Uploader Avatar von Filbo11
    Registriert seit
    Jan 2015
    Beiträge
    931
    Punkte
    17.281
    Errungenschaften:
    TomodachisErste Gruppe1 Jahr registriertCreated Album picturesTagger First Class

    Hundred [Jap-Dub][Ger-Sub][720p-8Bit/10Bit][HDTV] - KaHo

    Hundred
    ハンドレッド




    Beschreibung

    Die Erde wird von mysteriösen Wesen heimgesucht und nur eine Waffe kann diese abhalten: Die Hundred! Auf der Marine-Akademie Little Garden werden Schüler ausgebildet, Slayer zu werden. Das sind Leute, die die Kriegskunst beherrschen und mit den Hundred kämpfen. Hayato Kisaragi tritt dieser Akademie bei, um eines Tages mal diese Waffe ihn seinen Händen zu halten. Doch nach der Aufnahme muss er sich auch gleich mit der Königin der Slayer duellieren: Claire Harvey! Als ob das nicht genug wäre, passiert ihm auch noch etwas Komisches. Er verspürt eigenartigerweise eine vertraute Bindung zu seinem Mitbewohner Emil Crossford, die er sich nicht erklären kann …


    Format: mp4 [8Bit] / mkv [10Bit]
    Dauer: ca. 24 min
    Größe: ca. 419-520 MB [8Bit] / 408-468 MB [10Bit]
    Sprache: Japanisch
    Untertitel: Deutsch
    Group: [Kami Honyaku]
    Hoster: Uploaded.net & Share-Online.biz
    kein PW


    Screenshots & MediaInfo

    8Bit
    [Links sind nur für registrierte und aktivierte Nutzer sichtbar. Klicke hier um dich zu registrieren.]

    Code:
    General
    Complete name               : [KaHo] Hundred 01 [TV 720P H264 AAC][587ED977].mp4
    Format                      : MPEG-4
    Format profile              : Base Media
    Codec ID                    : isom (isom/avc1/iso6)
    File size                   : 420 MiB
    Duration                    : 23mn 54s
    Overall bit rate mode       : Variable
    Overall bit rate            : 2 454 Kbps
    Encoded date                : UTC 2016-05-22 10:53:08
    Tagged date                 : UTC 2016-05-22 10:53:08
    
    Video
    ID                          : 1
    Format                      : AVC
    Format/Info                 : Advanced Video Codec
    Format profile              : [email protected]
    Format settings, CABAC      : Yes
    Format settings, ReFrames   : 9 frames
    Codec ID                    : avc1
    Codec ID/Info               : Advanced Video Coding
    Duration                    : 23mn 54s
    Bit rate                    : 2 259 Kbps
    Maximum bit rate            : 13.1 Mbps
    Width                       : 1 280 pixels
    Height                      : 720 pixels
    Display aspect ratio        : 16:9
    Frame rate mode             : Constant
    Frame rate                  : 23.976 (24000/1001) fps
    Color space                 : YUV
    Chroma subsampling          : 4:2:0
    Bit depth                   : 8 bits
    Scan type                   : Progressive
    Bits/(Pixel*Frame)          : 0.102
    Stream size                 : 386 MiB (92%)
    Writing library             : x264 core 148 r2638 7599210
    Encoding settings           : cabac=1 / ref=9 / deblock=1:0:0 / analyse=0x3:0x133 / me=umh / subme=11 / psy=1 / psy_rd=1.00:0.00 / mixed_ref=1 / me_range=24 / chroma_me=1 / trellis=2 / 8x8dct=1 / cqm=0 / deadzone=21,11 / fast_pskip=0 / chroma_qp_offset=-2 / threads=12 / lookahead_threads=3 / sliced_threads=0 / nr=0 / decimate=1 / interlaced=0 / bluray_compat=0 / constrained_intra=0 / bframes=10 / b_pyramid=2 / b_adapt=2 / b_bias=0 / direct=3 / weightb=1 / open_gop=0 / weightp=2 / keyint=240 / keyint_min=23 / scenecut=40 / intra_refresh=0 / rc_lookahead=50 / rc=crf / mbtree=1 / crf=16.0 / qcomp=0.60 / qpmin=0 / qpmax=69 / qpstep=4 / vbv_maxrate=62500 / vbv_bufsize=78125 / crf_max=0.0 / nal_hrd=none / filler=0 / ip_ratio=1.40 / aq=2:0.80
    Encoded date                : UTC 2016-05-22 10:53:08
    Tagged date                 : UTC 2016-05-22 10:53:17
    
    Audio
    ID                          : 2
    Format                      : AAC
    Format/Info                 : Advanced Audio Codec
    Format profile              : LC
    Codec ID                    : 40
    Duration                    : 23mn 54s
    Bit rate mode               : Variable
    Bit rate                    : 192 Kbps
    Maximum bit rate            : 229 Kbps
    Channel(s)                  : 2 channels
    Channel positions           : Front: L R
    Sampling rate               : 48.0 KHz
    Frame rate                  : 46.875 fps (1024 spf)
    Compression mode            : Lossy
    Stream size                 : 32.8 MiB (8%)
    Language                    : Japanese
    Encoded date                : UTC 2016-05-22 09:22:31
    Tagged date                 : UTC 2016-05-22 10:53:17
    
    Menu
    00:00:00.000                : Einleitung
    00:01:37.931                : Opening
    00:03:07.937                : Hauptteil
    00:22:14.875                : Ending
    00:23:44.840                : Vorschau


    10Bit
    [Links sind nur für registrierte und aktivierte Nutzer sichtbar. Klicke hier um dich zu registrieren.]

    Code:
    General
    
    Complete name               : [KaHo] Hundred 01 [TV 720P Hi10P AAC][9FCD37C2].mkv
    Format                      : Matroska
    Format version              : Version 4 / Version 2
    File size                   : 408 MiB
    Duration                    : 23mn 54s
    Overall bit rate            : 2 387 Kbps
    Encoded date                : UTC 2016-05-22 09:08:30
    Writing application         : mkvmerge v9.1.0 ('Little Earthquakes') 64bit
    Writing library             : libebml v1.3.3 + libmatroska v1.4.4
    Attachments                 : HTOWERT.TTF / HTOWERTI.TTF / PassingNotes.otf / Shannon Std Book.ttf / YuGothR.ttc / AdobeGothicStd-Bold.otf / fontastique.ttf / GIL_____.TTF
    
    Video
    ID                          : 2
    Format                      : AVC
    Format/Info                 : Advanced Video Codec
    Format profile              : High [email protected]
    Format settings, CABAC      : Yes
    Format settings, ReFrames   : 16 frames
    Codec ID                    : V_MPEG4/ISO/AVC
    Duration                    : 23mn 54s
    Bit rate                    : 2 101 Kbps
    Width                       : 1 280 pixels
    Height                      : 720 pixels
    Display aspect ratio        : 16:9
    Frame rate mode             : Constant
    Frame rate                  : 23.976 (24000/1001) fps
    Color space                 : YUV
    Chroma subsampling          : 4:2:0
    Bit depth                   : 10 bits
    Scan type                   : Progressive
    Bits/(Pixel*Frame)          : 0.095
    Stream size                 : 359 MiB (88%)
    Writing library             : x264 core 133 r2334 a3ac64b
    Encoding settings           : cabac=1 / ref=16 / deblock=1:0:0 / analyse=0x3:0x133 / me=umh / subme=11 / psy=1 / psy_rd=1.00:0.15 / mixed_ref=1 / me_range=32 / chroma_me=1 / trellis=2 / 8x8dct=1 / cqm=0 / deadzone=21,11 / fast_pskip=0 / chroma_qp_offset=-3 / threads=12 / lookahead_threads=3 / sliced_threads=0 / nr=0 / decimate=1 / interlaced=0 / bluray_compat=0 / constrained_intra=0 / bframes=16 / b_pyramid=2 / b_adapt=2 / b_bias=0 / direct=3 / weightb=1 / open_gop=0 / weightp=2 / keyint=250 / keyint_min=23 / scenecut=40 / intra_refresh=0 / rc_lookahead=60 / rc=crf / mbtree=1 / crf=16.0 / qcomp=0.60 / qpmin=0 / qpmax=81 / qpstep=4 / ip_ratio=1.40 / aq=2:0.80
    Language                    : English
    Default                     : Yes
    Forced                      : No
    
    Audio
    ID                          : 1
    Format                      : AAC
    Format/Info                 : Advanced Audio Codec
    Format profile              : LC
    Codec ID                    : A_AAC
    Duration                    : 23mn 54s
    Bit rate                    : 192 Kbps
    Channel(s)                  : 2 channels
    Channel positions           : Front: L R
    Sampling rate               : 48.0 KHz
    Frame rate                  : 46.875 fps (1024 spf)
    Compression mode            : Lossy
    Stream size                 : 32.3 MiB (8%)
    Language                    : Japanese
    Default                     : Yes
    Forced                      : No
    
    Text
    ID                          : 3
    Format                      : ASS
    Codec ID                    : S_TEXT/ASS
    Codec ID/Info               : Advanced Sub Station Alpha
    Duration                    : 23mn 52s
    Bit rate                    : 798 bps
    Count of elements           : 1395
    Compression mode            : Lossless
    Stream size                 : 140 KiB (0%)
    Language                    : German
    Default                     : Yes
    Forced                      : No
    
    Menu
    00:00:00.000                : en:Einleitung
    00:01:37.931                : en:Opening
    00:03:07.937                : en:Hauptteil
    00:22:14.875                : en:Ending
    00:23:44.840                : en:Vorschau


    Alle Mirrors untereinander kompatibel
    Folgen einzeln ladbar
    Folge 12/12 online


    Download
    Geschützter Bereich - Bedanke dich beim Poster, um den Bereich sehen zu können
    Hier erfährst Du wie Du Dich bedanken kannst oder werde jetzt Premium Mitglied ab einer Spende von 5€ und erhalte sofortigen Zugriff auf den Downloadbereich!

    Geändert von Filbo11 (4. July 2016 um 21:54 Uhr) Grund: folge 9-12 hinzugefügt somit komplett

    [Links sind nur für registrierte und aktivierte Nutzer sichtbar. Klicke hier um dich zu registrieren.]

    Ich wäre allen sehr dankbar, die mir gravierende Fehler in meinen Releases per PN melden

  2. 7 Benutzer sagen Danke:

    DarthToast (13. July 2016),frankra (26. July 2016),Magikarp (4. July 2016),Natsuki (25. May 2016),neron86 (25. May 2016),SynDic4Te (27. May 2016),toter Fisch (5. August 2016)

  3. #2
    Uploader Avatar von Filbo11
    Registriert seit
    Jan 2015
    Beiträge
    931
    Punkte
    17.281
    Errungenschaften:
    TomodachisErste Gruppe1 Jahr registriertCreated Album picturesTagger First Class

    AW: Hundred [Laufend][Jap-Dub][Ger-Sub][720p-8Bit/10Bit][HDTV] - KaHo

    folge 3 & 4 hinzugefügt

    [Links sind nur für registrierte und aktivierte Nutzer sichtbar. Klicke hier um dich zu registrieren.]

    Ich wäre allen sehr dankbar, die mir gravierende Fehler in meinen Releases per PN melden

  4. #3
    Uploader Avatar von Filbo11
    Registriert seit
    Jan 2015
    Beiträge
    931
    Punkte
    17.281
    Errungenschaften:
    TomodachisErste Gruppe1 Jahr registriertCreated Album picturesTagger First Class

    AW: Hundred [Laufend][Jap-Dub][Ger-Sub][720p-8Bit/10Bit][HDTV] - KaHo

    folge 5 & 6 hinzugefügt

    [Links sind nur für registrierte und aktivierte Nutzer sichtbar. Klicke hier um dich zu registrieren.]

    Ich wäre allen sehr dankbar, die mir gravierende Fehler in meinen Releases per PN melden

  5. #4
    Uploader Avatar von Filbo11
    Registriert seit
    Jan 2015
    Beiträge
    931
    Punkte
    17.281
    Errungenschaften:
    TomodachisErste Gruppe1 Jahr registriertCreated Album picturesTagger First Class

    AW: Hundred [Laufend][Jap-Dub][Ger-Sub][720p-8Bit/10Bit][HDTV] - KaHo

    folge 7 & 8 hinzugefügt

    [Links sind nur für registrierte und aktivierte Nutzer sichtbar. Klicke hier um dich zu registrieren.]

    Ich wäre allen sehr dankbar, die mir gravierende Fehler in meinen Releases per PN melden

  6. #5
    Uploader Avatar von Filbo11
    Registriert seit
    Jan 2015
    Beiträge
    931
    Punkte
    17.281
    Errungenschaften:
    TomodachisErste Gruppe1 Jahr registriertCreated Album picturesTagger First Class

    AW: Hundred [Jap-Dub][Ger-Sub][720p-8Bit/10Bit][HDTV] - KaHo

    folge 9-12 hinzugefügt somit komplett

    [Links sind nur für registrierte und aktivierte Nutzer sichtbar. Klicke hier um dich zu registrieren.]

    Ich wäre allen sehr dankbar, die mir gravierende Fehler in meinen Releases per PN melden

Stichworte

Lesezeichen

Berechtigungen

  • Neue Themen erstellen: Nein
  • Themen beantworten: Nein
  • Anhänge hochladen: Nein
  • Beiträge bearbeiten: Nein
  •  

1 2 3 4 5 6 7 8 9 10 11 12 13 14 15 16 17 18 19 20 21 22 23 24 25 26 27 28 29 30 31 32 33 34 35 36 37 38 39 40 41 42 43 44 45 46 47 48 49 50 51 52 53 54 55 56 57 58 59 60 61 62 63 64 65 66 67 68 69 70 71 72 73 74 75 76 77 78 79 80 81 82 83 84 85 86 87 88 89 90 91 92 93 94 95 96 97 98 99 100 101 102 103 104 105 106 107 108 109 110 111 112 113 114 115 116 117 118 119 120 121 122 123 124 125 126 127 128 129 130 131 132 133 134 135 136 137 138 139 140 141 142 143 144 145 146 147 148 149 150 151 152 153 154 155 156 157 158