Ergebnis 1 bis 1 von 1

Thema: Jitsu wa Watashi wa [Jap-Dub][Ger-Sub][720p][HDTV] - Saru

Dieser Thread wurde noch nicht bewertet. Bewerte ihn doch, wenn er dir gefällt!
  1. #1
    Kami-sama Avatar von galudo
    Registriert seit
    Mar 2015
    Beiträge
    1.370
    Punkte
    25.977
    Errungenschaften:
    TomodachisTagger ProfiHyperaktivSenpaiGang Leader

    Jitsu wa Watashi wa [Jap-Dub][Ger-Sub][720p][HDTV] - Saru

    Jitsu wa Watashi wa
    実は私は
    I am ..., The Truth Is I Am...



    Kurzbeschreibung
    Kuromine Asahi, der nicht in der Lage ist zu lügen, findet heraus, dass sein Schwarm, Shiragami Youko, ein Vampirmädchen ist.
    Jedoch ist sie gezwungen die Schule zu verlassen, falls ihr Geheimnis gelüftet werden sollte, weshalb er ihr verspricht dichtzuhalten. Doch wird er ihr Geheimnis tatsächlich bewahren können?
    Format: MP4
    Sprache: Japanisch
    Untertitel: Deutsch
    Genre: Comedy, Ecchi, Fantasy, Harem, Romantik, Vampire
    Größe: ~ 275 MB pro Folge | Gesamtgröße: 3,59 GB
    Dauer: ~ 24 Minuten
    Jahr: 2015
    Video: 720p
    Source: HDTV
    Subgroup / Releasegroup: Saru-Subs

    Hoster: Share-Online | Uploaded
    Passwort: siehe unten


    Datei-Info
    Spoiler
    Code:
    General
    Complete name                  : Jitsu wa Watashi wa - 01 - Ich werde es gestehen.mp4
    Format                         : MPEG-4
    Format profile                 : Base Media
    Codec ID                       : isom
    File size                      : 303 MiB
    Duration                       : 23mn 52s
    Overall bit rate mode          : Variable
    Overall bit rate               : 1 777 Kbps
    Encoded date                   : UTC 2015-11-23 01:32:39
    Tagged date                    : UTC 2015-11-23 01:32:39
    
    Video
    ID                             : 1
    Format                         : AVC
    Format/Info                    : Advanced Video Codec
    Format profile                 : [email protected]
    Format settings, CABAC         : Yes
    Format settings, ReFrames      : 8 frames
    Codec ID                       : avc1
    Codec ID/Info                  : Advanced Video Coding
    Duration                       : 23mn 52s
    Bit rate                       : 1 582 Kbps
    Maximum bit rate               : 8 391 Kbps
    Width                          : 1 280 pixels
    Height                         : 720 pixels
    Display aspect ratio           : 16:9
    Frame rate mode                : Constant
    Frame rate                     : 23.976 fps
    Color space                    : YUV
    Chroma subsampling             : 4:2:0
    Bit depth                      : 8 bits
    Scan type                      : Progressive
    Bits/(Pixel*Frame)             : 0.072
    Stream size                    : 270 MiB (89%)
    Writing library                : x264 core 146 r2538 121396c
    Encoding settings              : cabac=1 / ref=9 / deblock=1:1:0 / analyse=0x3:0x133 / me=umh / subme=9 / psy=1 / psy_rd=1.00:0.00 / mixed_ref=1 / me_range=24 / chroma_me=1 / trellis=2 / 8x8dct=1 / cqm=0 / deadzone=21,11 / fast_pskip=0 / chroma_qp_offset=-2 / threads=12 / lookahead_threads=3 / sliced_threads=0 / nr=0 / decimate=1 / interlaced=0 / bluray_compat=0 / constrained_intra=0 / bframes=10 / b_pyramid=1 / b_adapt=2 / b_bias=1 / direct=3 / weightb=1 / open_gop=0 / weightp=2 / keyint=240 / keyint_min=23 / scenecut=40 / intra_refresh=0 / rc_lookahead=60 / rc=crf / mbtree=1 / crf=16.0 / qcomp=0.60 / qpmin=0 / qpmax=69 / qpstep=4 / vbv_maxrate=62500 / vbv_bufsize=78125 / crf_max=0.0 / nal_hrd=none / filler=0 / ip_ratio=1.40 / aq=1:0.60
    Encoded date                   : UTC 2015-11-23 01:32:39
    Tagged date                    : UTC 2015-11-23 01:33:01
    
    Audio
    ID                             : 2
    Format                         : AAC
    Format/Info                    : Advanced Audio Codec
    Format profile                 : LC
    Codec ID                       : 40
    Duration                       : 23mn 52s
    Bit rate mode                  : Variable
    Bit rate                       : 192 Kbps
    Maximum bit rate               : 235 Kbps
    Channel(s)                     : 2 channels
    Channel positions              : Front: L R
    Sampling rate                  : 44.1 KHz
    Compression mode               : Lossy
    Stream size                    : 32.7 MiB (11%)
    Encoded date                   : UTC 2015-11-23 00:55:35
    Tagged date                    : UTC 2015-11-23 01:33:01


    Folgen 13 / 13 online
    Folgen einzeln ladbar



    || Download & Passwort ||


    Geschützter Bereich - Bedanke dich beim Poster, um den Bereich sehen zu können
    Hier erfährst Du wie Du Dich bedanken kannst oder werde jetzt Premium Mitglied ab einer Spende von 5€ und erhalte sofortigen Zugriff auf den Downloadbereich!

    Geändert von galudo (12. October 2016 um 18:37 Uhr)
    SUPPORT UND REUP ANFRAGEN NUR >> [Links sind nur für registrierte und aktivierte Nutzer sichtbar. Klicke hier um dich zu registrieren.] <<
    Bitte IMMER den Thread-Link mitschicken.

  2. 18 Benutzer sagen Danke:

    Angel86 (20. March 2016),carollatranny (19. May 2016),Denocide (19. March 2016),Geisterhaendler (30. March 2016),Juckz (17. March 2016),Leopon (20. March 2016),neocx (29. March 2016),old nick (17. March 2016),Patorikku-kun (6. April 2016),piggsylol (28. March 2016),Sansento (25. March 2016),SenseiSasone (24. November 2016),skullreaper666 (28. March 2016),SONNYxq (17. March 2016),Tekk (17. March 2016),TheYoAsakura (17. March 2016),Tschu23 (17. March 2016),Windwusel (17. March 2016)

Stichworte

Lesezeichen

Berechtigungen

  • Neue Themen erstellen: Nein
  • Themen beantworten: Nein
  • Anhänge hochladen: Nein
  • Beiträge bearbeiten: Nein
  •  

1 2 3 4 5 6 7 8 9 10 11 12 13 14 15 16 17 18 19 20 21 22 23 24 25 26 27 28 29 30 31 32 33 34 35 36 37 38 39 40 41 42 43 44 45 46 47 48 49 50 51 52 53 54 55 56 57 58 59 60 61 62 63 64 65 66 67 68 69 70 71 72 73 74 75 76 77 78 79 80 81 82 83 84 85 86 87 88 89 90 91 92 93 94 95 96 97 98 99 100 101 102 103 104 105 106 107 108 109 110 111 112 113 114 115 116 117 118 119 120 121 122 123 124 125 126 127 128 129 130 131 132 133 134 135 136 137 138 139 140 141 142 143 144 145 146 147 148 149 150 151 152 153 154 155 156 157 158