Ergebnis 1 bis 1 von 1

Thema: JoJo no Kimyou na Bouken: Stardust Crusaders [Ger Sub][Jap Dub][720p][HDTV]

Dieser Thread wurde noch nicht bewertet. Bewerte ihn doch, wenn er dir gefällt!
  1. #1
    Erfahrener Otaku Avatar von Kajiro
    Registriert seit
    Mar 2014
    Ort
    Irgendwo im Nirgendwo
    Beiträge
    213
    Punkte
    10.403
    Errungenschaften:
    10000 ErfahrungspunkteHikikomori

    JoJo no Kimyou na Bouken: Stardust Crusaders [Ger Sub][Jap Dub][720p][HDTV]


    JoJo no Kimyou na Bouken: Stardust Crusaders





    Kurzbeschreibung:
    Der 17-jährige Jotaro Kujo ist ein Rabauke mit losem Mundwerk, der jeden, der ihn bedroht, schnell Schachmatt setzt. Da plötzlich eine mysteriöse Kraft in ihm erwacht ist, die er nicht kontrollieren kann, lässt er sich freiwillig von der Polizei einsperren. Seine besorgte Mutter ruft seinen Großvater Joseph Joestar zu Hilfe, der dem jungen JoJo eröffnet, dass der totgeglaubte Dio nach 100 Jahren zurückgekehrt ist und die Joestar-Familie im Visier hat. Als Reaktion auf dieses Ereignis sind bei ihm neue Kräfte erwacht, die es JoJo ermöglichen einen "Stand" zu erzeugen, eine für die Normalbevölkerung unsichtbare Kreatur, die ihm übernatürliche Kampfkraft verleiht. Nun ist es am jungen JoJo zu lernen, diese neue Fähigkeit zu kontrollieren und gegen Dio und dessen Schergen anzutreten.


    Sprache: Japanisch
    Untertitel: Deutsch
    Folgen:24/24
    Größe: 215-380MB
    Format:MP4
    Auflösung: 1280x720
    Genre: Fighting-Shounen
    Sub Gruppe: [P-A]


    Datei Info:
    Spoiler
    Video
    ID : 1
    Format : AVC
    Format/Info : Advanced Video Codec
    Format profile : [email protected]
    Format settings, CABAC : Yes
    Format settings, ReFrames : 4 frames
    Codec ID : avc1
    Codec ID/Info : Advanced Video Coding
    Duration : 23mn 51s
    Bit rate : 2 048 Kbps
    Maximum bit rate : 19.1 Mbps
    Width : 1 920 pixels
    Height : 1 080 pixels
    Display aspect ratio : 16:9
    Frame rate mode : Constant
    Frame rate : 23.976 fps
    Color space : YUV
    Chroma subsampling : 4:2:0
    Bit depth : 8 bits
    Scan type : Progressive
    Bits/(Pixel*Frame) : 0.041
    Stream size : 350 MiB (94%)
    Writing library : x264 core 119 r2106 07efeb4


    Audio
    ID : 2
    Format : AAC
    Format/Info : Advanced Audio Codec
    Format profile : LC
    Codec ID : 40
    Duration : 23mn 51s
    Bit rate mode : Variable
    Bit rate : 132 Kbps
    Maximum bit rate : 171 Kbps
    Channel(s) : 2 channels
    Channel positions : Front: L R
    Sampling rate : 44.1 KHz
    Compression mode : Lossy
    Delay relative to video : -5s 5ms
    Stream size : 22.5 MiB (6%)
    Encoded date : UTC 2014-05-25 10:48:24





    Geschützter Bereich - Bedanke dich beim Poster, um den Bereich sehen zu können
    Hier erfährst Du wie Du Dich bedanken kannst oder werde jetzt Premium Mitglied ab einer Spende von 5€ und erhalte sofortigen Zugriff auf den Downloadbereich!

    Inaktiver Uploader!

    Alle Re-Upload-Anfragen öffentlich im [Links sind nur für registrierte und aktivierte Nutzer sichtbar. Klicke hier um dich zu registrieren.] posten!

  2. 41 Benutzer sagen Danke:

    Akulti (7. December 2014),alecander (18. January 2015),alexororro (1. September 2015),Antipott (12. January 2015),BlackMekkor (28. February 2015),BlackOut84 (23. March 2016),bohne (7. October 2015),Bunchy (24. January 2015),Chaosity (27. September 2015),Creed008_inactive (9. August 2015),D15c05 (28. February 2016),Draagul (29. March 2015),Flint (29. September 2014),Galebourn (12. November 2014),gotjack11 (11. November 2014),Hyro (3. October 2014),Jukka (31. October 2015),kadaj93 (29. September 2014),Mosa (23. November 2015),Nanatzusaya (20. March 2015),nbody (23. April 2016),nudel (13. January 2015),Obiwan Shinobi (15. July 2016),Rawrlex (10. April 2015),Rord Venom (23. November 2014),ryo3 (4. October 2014),scrabbler_inactive (29. September 2014),Scypher (7. October 2014),Seki (28. May 2016),SerienStream (21. July 2015),SnowCat (1. October 2014),starforce (26. November 2014),Sylux (25. September 2015),thetruemoe (2. October 2014),Timberwolf (6. January 2016),Usumaina (5. February 2015),Valetinese (4. October 2014),Vivere (20. April 2015),xZodiac (17. October 2014),Zapzerap (19. January 2016),ZomKne (31. July 2015)

Lesezeichen

Berechtigungen

  • Neue Themen erstellen: Nein
  • Themen beantworten: Nein
  • Anhänge hochladen: Nein
  • Beiträge bearbeiten: Nein
  •  

1 2 3 4 5 6 7 8 9 10 11 12 13 14 15 16 17 18 19 20 21 22 23 24 25 26 27 28 29 30 31 32 33 34 35 36 37 38 39 40 41 42 43 44 45 46 47 48 49 50 51 52 53 54 55 56 57 58 59 60 61 62 63 64 65 66 67 68 69 70 71 72 73 74 75 76 77 78 79 80 81 82 83 84 85 86 87 88 89 90 91 92 93 94 95 96 97 98 99 100 101 102 103 104 105 106 107 108 109 110 111 112 113 114 115 116 117 118 119 120 121 122 123 124 125 126 127 128 129 130 131 132 133 134 135 136 137 138 139 140 141 142 143 144 145 146 147 148 149 150 151 152 153 154 155 156 157 158