Ergebnis 1 bis 1 von 1

Thema: Junjou Romantica + OVA [Jap-Dub][Ger-Sub][480p][WebRip]-LS

Dieser Thread wurde noch nicht bewertet. Bewerte ihn doch, wenn er dir gefällt!
  1. #1
    United we Stand Avatar von 00Ryuji00
    Registriert seit
    Oct 2012
    Beiträge
    3.896
    Punkte
    99.519
    Errungenschaften:
    TomodachisGang LeaderHikikomoriTagger Amateur50000 Erfahrungspunkte

    Junjou Romantica + OVA [Jap-Dub][Ger-Sub][480p][WebRip]-LS


    Junjou Romantica







    Kurzbeschreibung:
    Zitat Zitat von AniSearch.com
    Misaki Takahashi lebt nach dem Tod seiner Eltern gemeinsam mit seinem Bruder Takahiro zusammen. Er kümmert sich um ihn und gibt dafür auch sein Studium auf, weswegen Misaki unbedingt an seiner Stelle studieren will. Um das zu erreichen, soll ihm Takahiros Freund Akihiko Usami Nachhilfe geben, dieser ist ein erfolgreicher Autor von Romanen. Bald entdeckt Misaki, dass Akihio in Takahiro verliebt ist, jedoch heiratet sein Bruder bald und Misaki bedauert Takahiro dafür...


    Spieldauer: 24min
    Genre: Romanze
    Nebengenres: Alltagsleben, Komödie, Romanze, Yaoi
    Jahr: 2008
    Sprache: Japanisch
    Untertitel: Deutsch
    Größe pro Folge: ~209 MiB
    Episodenanzahl: 12/12 + 1/1
    Format: MP4
    Auflösung: 480p (16:9)
    Videocodec: x264 (AVC)
    Audiocodec: AAC
    Releasegruppe: LS
    Hoster: Share-Online, Uploaded


    MediaInfo
    Code:
    
    Format                                   : MPEG-4
    Format profile                           : Base Media
    Codec ID                                 : isom
    File size                                : 209 MiB
    Duration                                 : 23mn 44s
    Overall bit rate mode                    : Variable
    Overall bit rate                         : 1 231 Kbps
    Encoded date                             : UTC 2014-11-29 18:40:37
    Tagged date                              : UTC 2014-11-29 18:40:37
    Writing application                      : Yamb 2.1.0.0 [http://yamb.unite-video.com]
    
    Video
    ID                                       : 2
    Format                                   : AVC
    Format/Info                              : Advanced Video Codec
    Format profile                           : [email protected]
    Format settings, CABAC                   : Yes
    Format settings, ReFrames                : 4 frames
    Codec ID                                 : avc1
    Codec ID/Info                            : Advanced Video Coding
    Duration                                 : 23mn 44s
    Bit rate                                 : 1 062 Kbps
    Maximum bit rate                         : 3 065 Kbps
    Width                                    : 864 pixels
    Height                                   : 480 pixels
    Display aspect ratio                     : 16:9
    Frame rate mode                          : Constant
    Frame rate                               : 23.976 fps
    Color space                              : YUV
    Chroma subsampling                       : 4:2:0
    Bit depth                                : 8 bits
    Scan type                                : Progressive
    Bits/(Pixel*Frame)                       : 0.107
    Stream size                              : 180 MiB (86%)
    Writing library                          : x264 core 142 r2389+41 02cb608 tMod [[email protected] X86_64]
    Encoding settings                        : cabac=1 / ref=2 / deblock=1:0:0 / analyse=0x3:0x113 / me=hex / subme=6 / psy=1 / fade_compensate=0.00 / psy_rd=1.00:0.00 / mixed_ref=1 / me_range=16 / chroma_me=1 / trellis=1 / 8x8dct=1 / cqm=0 / deadzone=21,11 / fast_pskip=1 / chroma_qp_offset=-2 / threads=12 / lookahead_threads=2 / sliced_threads=0 / nr=0 / decimate=1 / interlaced=0 / bluray_compat=0 / constrained_intra=0 / fgo=0 / bframes=3 / b_pyramid=2 / b_adapt=1 / b_bias=0 / direct=1 / weightb=1 / open_gop=0 / weightp=1 / keyint=250 / keyint_min=23 / scenecut=40 / intra_refresh=0 / rc_lookahead=30 / rc=crf / mbtree=1 / crf=14.0000 / qcomp=0.60 / qpmin=0:0:0 / qpmax=69:69:69 / qpstep=4 / vbv_maxrate=1800 / vbv_bufsize=2100 / crf_max=0.0 / nal_hrd=none / filler=0 / ip_ratio=1.40 / aq=1:1.00 / aq-sensitivity=10.00 / aq-factor=1.00:1.00:1.00 / aq2=0 / aq3=0
    Encoded date                             : UTC 2014-11-30 17:25:22
    Tagged date                              : UTC 2014-11-29 18:40:42
    
    Audio
    ID                                       : 3
    Format                                   : AAC
    Format/Info                              : Advanced Audio Codec
    Format profile                           : LC
    Codec ID                                 : 40
    Duration                                 : 23mn 44s
    Duration_FirstFrame                      : 64ms
    Bit rate mode                            : Variable
    Bit rate                                 : 165 Kbps
    Maximum bit rate                         : 226 Kbps
    Channel(s)                               : 2 channels
    Channel positions                        : Front: L R
    Sampling rate                            : 48.0 KHz
    Compression mode                         : Lossy
    Stream size                              : 28.1 MiB (13%)
    Encoded date                             : UTC 2014-11-29 18:40:40
    Tagged date                              : UTC 2014-11-29 18:40:42
    
    





    Geschützter Bereich - Bedanke dich beim Poster, um den Bereich sehen zu können
    Hier erfährst Du wie Du Dich bedanken kannst oder werde jetzt Premium Mitglied ab einer Spende von 5€ und erhalte sofortigen Zugriff auf den Downloadbereich!

    [Links sind nur für registrierte und aktivierte Nutzer sichtbar. Klicke hier um dich zu registrieren.]
    !!!Alle Anliegen bezüglich Uploads werden nur mit direktem Threadlink zum Angebot bearbeitet!!!

    Re-Uploadanfragen nur per PN - Ihr könnt mir auch Listen schicken

    Re-Uploads erfolgen meist innerhalb 24h, kann aber auch bis zu 7 Tage dauern

    [Links sind nur für registrierte und aktivierte Nutzer sichtbar. Klicke hier um dich zu registrieren.] | [Links sind nur für registrierte und aktivierte Nutzer sichtbar. Klicke hier um dich zu registrieren.] | >[Links sind nur für registrierte und aktivierte Nutzer sichtbar. Klicke hier um dich zu registrieren.]<
    [Links sind nur für registrierte und aktivierte Nutzer sichtbar. Klicke hier um dich zu registrieren.]

  2. 4 Benutzer sagen Danke:

    Asuka Langley (19. April 2016),cat 86 (8. November 2016),Lytrox (9. May 2016),MrThief (19. July 2016)

Lesezeichen

Berechtigungen

  • Neue Themen erstellen: Nein
  • Themen beantworten: Nein
  • Anhänge hochladen: Nein
  • Beiträge bearbeiten: Nein
  •  

1 2 3 4 5 6 7 8 9 10 11 12 13 14 15 16 17 18 19 20 21 22 23 24 25 26 27 28 29 30 31 32 33 34 35 36 37 38 39 40 41 42 43 44 45 46 47 48 49 50 51 52 53 54 55 56 57 58 59 60 61 62 63 64 65 66 67 68 69 70 71 72 73 74 75 76 77 78 79 80 81 82 83 84 85 86 87 88 89 90 91 92 93 94 95 96 97 98 99 100 101 102 103 104 105 106 107 108 109 110 111 112 113 114 115 116 117 118 119 120 121 122 123 124 125 126 127 128 129 130 131 132 133 134 135 136 137 138 139 140 141 142 143 144 145 146 147 148 149 150 151 152 153 154 155 156 157 158