Ergebnis 1 bis 3 von 3

Thema: Kamisama Hajimemashita 2 [Jap-Dub][Ger-Sub][720p][HDTV] - L-S

Dieser Thread wurde noch nicht bewertet. Bewerte ihn doch, wenn er dir gefällt!
  1. #1
    Uploader Avatar von Filbo11
    Registriert seit
    Jan 2015
    Beiträge
    931
    Punkte
    17.255
    Errungenschaften:
    TomodachisErste Gruppe1 Jahr registriertCreated Album picturesTagger First Class

    Kamisama Hajimemashita 2 [Jap-Dub][Ger-Sub][720p][HDTV] - L-S

    Kamisama Hajimemashita 2
    神様はじめました 2
    Kamisama Kiss 2
    Kamisama Hajimemashita 2nd Season, Kamisama Kiss Second Season




    Handlung

    Nanami führt ihre Aufgabe als menschliche Erdgottheit fort und ist sich auch weiterhin ihrer Verliebtheit zu ihrem Götterdiener Tomoe bewusst. Nicht nur mit Onikiri, Kotetsu und Tomoe lebt Nanami inzwischen zusammen, sondern auch mit ihrem neuen Shikigami (Schutzgeister) Mizuki und Mamoru. Mamoru hat die Gestalt eines kleinen Affen. Nanamis göttliche Fähigkeiten, werden allerdings auf die Probe gestellt, als der Windgott Otohiko sie einem Test unterzieht. In diesem Test muss sie Beweisen, dass auch sie das Recht dazu hat, die Götterversammlung in Izumo zu besuchen.


    Format: mp4
    Dauer: ca. 24 min
    Größe: ca. 250-360 MB (gesamt: 3,33 GB)
    Episodenanzahl: 12/12
    Sprache: Japanisch
    Untertitel: Deutsch
    Group: [L-S]
    Hoster: Uploaded.net & Share-Online.biz
    kein PW


    Screenshots & MediaInfo

    Spoiler
    [Links sind nur für registrierte und aktivierte Nutzer sichtbar. Klicke hier um dich zu registrieren.]

    Code:
    General
    Complete name               : [L-S] Kamisama Hajimemashita 2.01 (1280x720 h264 AAC) [F97DB4D5].mp4
    Format                      : MPEG-4
    Format profile              : Base Media
    Codec ID                    : isom
    File size                   : 289 MiB
    Duration                    : 23mn 55s
    Overall bit rate mode       : Variable
    Overall bit rate            : 1 688 Kbps
    Encoded date                : UTC 2015-01-12 18:35:11
    Tagged date                 : UTC 2015-01-12 18:35:11
    
    Video
    ID                          : 1
    Format                      : AVC
    Format/Info                 : Advanced Video Codec
    Format profile              : [email protected]
    Format settings, CABAC      : Yes
    Format settings, ReFrames   : 6 frames
    Codec ID                    : avc1
    Codec ID/Info               : Advanced Video Coding
    Duration                    : 23mn 55s
    Bit rate                    : 1 557 Kbps
    Maximum bit rate            : 4 884 Kbps
    Width                       : 1 280 pixels
    Height                      : 720 pixels
    Display aspect ratio        : 16:9
    Frame rate mode             : Constant
    Frame rate                  : 23.976 fps
    Color space                 : YUV
    Chroma subsampling          : 4:2:0
    Bit depth                   : 8 bits
    Scan type                   : Progressive
    Bits/(Pixel*Frame)          : 0.070
    Stream size                 : 266 MiB (92%)
    Writing library             : x264 core 142 r2431+42 c69a006 tMod [[email protected] X86_64]
    Encoding settings           : cabac=1 / ref=6 / deblock=1:0:0 / analyse=0x3:0x133 / me=hex / subme=7 / psy=1 / fade_compensate=0.00 / psy_rd=1.00:0.00 / mixed_ref=1 / me_range=16 / chroma_me=1 / trellis=1 / 8x8dct=1 / cqm=0 / deadzone=21,11 / fast_pskip=1 / chroma_qp_offset=-2 / threads=12 / lookahead_threads=2 / sliced_threads=0 / nr=0 / decimate=0 / interlaced=0 / bluray_compat=0 / constrained_intra=0 / fgo=0 / bframes=4 / b_pyramid=2 / b_adapt=1 / b_bias=0 / direct=3 / weightb=1 / open_gop=0 / weightp=2 / keyint=250 / keyint_min=23 / scenecut=40 / intra_refresh=0 / rc_lookahead=40 / rc=crf / mbtree=1 / crf=18.0000 / qcomp=0.60 / qpmin=0:0:0 / qpmax=69:69:69 / qpstep=4 / vbv_maxrate=2560 / vbv_bufsize=5120 / crf_max=0.0 / nal_hrd=none / filler=0 / ip_ratio=1.40 / aq=4:0.80 / aq-sensitivity=10.00 / aq-factor=1.00:1.00:1.00 / aq2=0 / aq3=0
    Encoded date                : UTC 2015-01-12 18:30:45
    Tagged date                 : UTC 2015-01-12 18:35:13
    Color range                 : Limited
    Color primaries             : BT.709
    Transfer characteristics    : BT.709
    Matrix coefficients         : BT.709
    
    Audio
    ID                          : 2
    Format                      : AAC
    Format/Info                 : Advanced Audio Codec
    Format profile              : LC
    Codec ID                    : 40
    Duration                    : 23mn 55s
    Bit rate mode               : Variable
    Bit rate                    : 128 Kbps
    Maximum bit rate            : 138 Kbps
    Channel(s)                  : 2 channels
    Channel positions           : Front: L R
    Sampling rate               : 44.1 KHz
    Compression mode            : Lossy
    Stream size                 : 21.9 MiB (8%)
    Encoded date                : UTC 2015-01-12 18:35:12
    Tagged date                 : UTC 2015-01-12 18:35:13


    Alle Mirrors untereinander kompatibel



    Download
    Geschützter Bereich - Bedanke dich beim Poster, um den Bereich sehen zu können
    Hier erfährst Du wie Du Dich bedanken kannst oder werde jetzt Premium Mitglied ab einer Spende von 5€ und erhalte sofortigen Zugriff auf den Downloadbereich!



    Geändert von Filbo11 (12. April 2016 um 10:10 Uhr) Grund: komplett reupt + neu verlinkt

    [Links sind nur für registrierte und aktivierte Nutzer sichtbar. Klicke hier um dich zu registrieren.]

    Ich wäre allen sehr dankbar, die mir gravierende Fehler in meinen Releases per PN melden

  2. 37 Benutzer sagen Danke:

    Akio (10. December 2015),Angel86 (28. September 2015),BlackDragon333 (6. October 2015),Cande (26. September 2015),Cloud9019 (9. October 2015),Cony (29. May 2016),Daimyo Tokugawa (14. August 2015),Fox Faram (23. July 2015),Goki.Grokus (5. January 2016),huntercity (7. September 2015),johnny10 (14. September 2015),kanita (8. January 2016),Ley0304 (29. July 2015),Megamani (8. November 2015),midnighter (25. July 2015),MutationACE (6. November 2016),Pazu (19. September 2016),PrinzDarknis (24. August 2015),prinzvegeta (4. October 2015),realmadridcf (19. February 2016),Ryuichiro (21. September 2015),sabs0686 (29. July 2015),Sandy7580 (22. July 2015),Seki (24. August 2015),Shimika (29. July 2015),Skully_88 (2. January 2016),SONNYxq (22. July 2015),Spotix (22. July 2015),Tekk (22. July 2015),THOR543 (6. November 2015),Tidus18 (7. November 2015),torusso12 (22. July 2015),tsukiShimizu (24. August 2015),Vice (26. July 2015),Wölfchen (28. September 2015),YamiXGhost (9. September 2015),ZER0XIII (16. October 2015)

  3. #2
    Uploader Avatar von Filbo11
    Registriert seit
    Jan 2015
    Beiträge
    931
    Punkte
    17.255
    Errungenschaften:
    TomodachisErste Gruppe1 Jahr registriertCreated Album picturesTagger First Class

    AW: Kamisama Hajimemashita 2 [Jap-Dub][Ger-Sub][720p][HDTV]

    re-upload aller folgen

    [Links sind nur für registrierte und aktivierte Nutzer sichtbar. Klicke hier um dich zu registrieren.]

    Ich wäre allen sehr dankbar, die mir gravierende Fehler in meinen Releases per PN melden

  4. #3
    Uploader Avatar von Filbo11
    Registriert seit
    Jan 2015
    Beiträge
    931
    Punkte
    17.255
    Errungenschaften:
    TomodachisErste Gruppe1 Jahr registriertCreated Album picturesTagger First Class

    AW: Kamisama Hajimemashita 2 [Jap-Dub][Ger-Sub][720p][HDTV] - L-S

    komplett reupt + neu verlinkt

    [Links sind nur für registrierte und aktivierte Nutzer sichtbar. Klicke hier um dich zu registrieren.]

    Ich wäre allen sehr dankbar, die mir gravierende Fehler in meinen Releases per PN melden

Stichworte

Lesezeichen

Berechtigungen

  • Neue Themen erstellen: Nein
  • Themen beantworten: Nein
  • Anhänge hochladen: Nein
  • Beiträge bearbeiten: Nein
  •  

1 2 3 4 5 6 7 8 9 10 11 12 13 14 15 16 17 18 19 20 21 22 23 24 25 26 27 28 29 30 31 32 33 34 35 36 37 38 39 40 41 42 43 44 45 46 47 48 49 50 51 52 53 54 55 56 57 58 59 60 61 62 63 64 65 66 67 68 69 70 71 72 73 74 75 76 77 78 79 80 81 82 83 84 85 86 87 88 89 90 91 92 93 94 95 96 97 98 99 100 101 102 103 104 105 106 107 108 109 110 111 112 113 114 115 116 117 118 119 120 121 122 123 124 125 126 127 128 129 130 131 132 133 134 135 136 137 138 139 140 141 142 143 144 145 146 147 148 149 150 151 152 153 154 155 156 157 158