Ergebnis 1 bis 1 von 1

Thema: Kamisama Hajimemashita [Jap-Dub][Ger-Sub][720p][BluRay] - L-S

Dieser Thread wurde noch nicht bewertet. Bewerte ihn doch, wenn er dir gefällt!
  1. #1
    Uploader Avatar von Filbo11
    Registriert seit
    Jan 2015
    Beiträge
    931
    Punkte
    17.255
    Errungenschaften:
    TomodachisErste Gruppe1 Jahr registriertCreated Album picturesTagger First Class

    Kamisama Hajimemashita [Jap-Dub][Ger-Sub][720p][BluRay] - L-S

    Kamisama Hajimemashita
    神様はじめました
    Kamisama Kiss




    Beschreibung

    Nanami Momozono hat ein kleines Problem. Ihr Vater liebt das Glücksspiel und als er eines Tages zu viele Schulden angesammelt hat, macht er sich kurzerhand aus dem Staub. Das stört die Gläubiger nicht groß, es gibt ja noch das Haus samt Inventar, und so landet Nanami auf der Straße.

    Format: mp4
    Dauer: ca. 24 min
    Größe: ca. 240-291 MB
    Sprache: Japanisch
    Untertitel: Deutsch
    Episodenanzahl: 13/13
    Releaser: [Lunatic-Studio]
    Hoster: Uploaded.net & Share-Online.biz
    kein PW


    Screenshots & Info

    Spoiler
    [Links sind nur für registrierte und aktivierte Nutzer sichtbar. Klicke hier um dich zu registrieren.]

    Code:
    General
    Complete name               : [l-s]_kamisama_hajimemashita_01_(bd_1280x720_h264_aac)_[d94303ab].mp4
    Format                      : MPEG-4
    Format profile              : Base Media
    Codec ID                    : isom (isom)
    File size                   : 273 MiB
    Duration                    : 23mn 56s
    Overall bit rate mode       : Variable
    Overall bit rate            : 1 596 Kbps
    Encoded date                : UTC 2015-01-06 19:33:48
    Tagged date                 : UTC 2015-01-06 19:33:48
    
    Video
    ID                          : 1
    Format                      : AVC
    Format/Info                 : Advanced Video Codec
    Format profile              : [email protected]
    Format settings, CABAC      : Yes
    Format settings, ReFrames   : 6 frames
    Codec ID                    : avc1
    Codec ID/Info               : Advanced Video Coding
    Duration                    : 23mn 56s
    Bit rate                    : 1 403 Kbps
    Maximum bit rate            : 4 638 Kbps
    Width                       : 1 280 pixels
    Height                      : 720 pixels
    Display aspect ratio        : 16:9
    Frame rate mode             : Constant
    Frame rate                  : 23.976 (24000/1001) fps
    Color space                 : YUV
    Chroma subsampling          : 4:2:0
    Bit depth                   : 8 bits
    Scan type                   : Progressive
    Bits/(Pixel*Frame)          : 0.063
    Stream size                 : 240 MiB (88%)
    Writing library             : x264 core 142 r2431+42 c69a006 tMod [[email protected] X86_64]
    Encoding settings           : cabac=1 / ref=6 / deblock=1:0:0 / analyse=0x3:0x133 / me=hex / subme=7 / psy=1 / fade_compensate=0.00 / psy_rd=1.00:0.00 / mixed_ref=1 / me_range=16 / chroma_me=1 / trellis=1 / 8x8dct=1 / cqm=0 / deadzone=21,11 / fast_pskip=1 / chroma_qp_offset=-2 / threads=12 / lookahead_threads=2 / sliced_threads=0 / nr=0 / decimate=0 / interlaced=0 / bluray_compat=0 / constrained_intra=0 / fgo=0 / bframes=4 / b_pyramid=2 / b_adapt=1 / b_bias=0 / direct=3 / weightb=1 / open_gop=0 / weightp=2 / keyint=250 / keyint_min=23 / scenecut=40 / intra_refresh=0 / rc_lookahead=40 / rc=crf / mbtree=1 / crf=18.0000 / qcomp=0.60 / qpmin=0:0:0 / qpmax=69:69:69 / qpstep=4 / vbv_maxrate=2560 / vbv_bufsize=5120 / crf_max=0.0 / nal_hrd=none / filler=0 / ip_ratio=1.40 / aq=4:0.80 / aq-sensitivity=10.00 / aq-factor=1.00:1.00:1.00 / aq2=0 / aq3=0
    Encoded date                : UTC 2015-01-05 21:16:20
    Tagged date                 : UTC 2015-01-06 19:33:55
    Color range                 : Limited
    Color primaries             : BT.709
    Transfer characteristics    : BT.709
    Matrix coefficients         : BT.709
    
    Audio
    ID                          : 2
    Format                      : AAC
    Format/Info                 : Advanced Audio Codec
    Format profile              : LC
    Codec ID                    : 67
    Duration                    : 23mn 56s
    Bit rate mode               : Variable
    Bit rate                    : 192 Kbps
    Maximum bit rate            : 196 Kbps
    Channel(s)                  : 2 channels
    Channel positions           : Front: L R
    Sampling rate               : 48.0 KHz
    Frame rate                  : 46.875 fps (1024 spf)
    Compression mode            : Lossy
    Stream size                 : 32.4 MiB (12%)
    Encoded date                : UTC 2015-01-06 19:33:54
    Tagged date                 : UTC 2015-01-06 19:33:55


    Alle Mirrors untereinander kompatibel
    Folgen einzeln ladbar


    Download
    Geschützter Bereich - Bedanke dich beim Poster, um den Bereich sehen zu können
    Hier erfährst Du wie Du Dich bedanken kannst oder werde jetzt Premium Mitglied ab einer Spende von 5€ und erhalte sofortigen Zugriff auf den Downloadbereich!




    Geändert von so1k (12. October 2016 um 20:46 Uhr)

    [Links sind nur für registrierte und aktivierte Nutzer sichtbar. Klicke hier um dich zu registrieren.]

    Ich wäre allen sehr dankbar, die mir gravierende Fehler in meinen Releases per PN melden

  2. 8 Benutzer sagen Danke:

    cooliero (1. December 2016),kaiste (7. April 2016),midnighter (27. January 2016),MutationACE (6. November 2016),Pazu (19. September 2016),realmadridcf (19. February 2016),Ronae (23. January 2016),tigerhai (23. January 2016)

Lesezeichen

Berechtigungen

  • Neue Themen erstellen: Nein
  • Themen beantworten: Nein
  • Anhänge hochladen: Nein
  • Beiträge bearbeiten: Nein
  •  

1 2 3 4 5 6 7 8 9 10 11 12 13 14 15 16 17 18 19 20 21 22 23 24 25 26 27 28 29 30 31 32 33 34 35 36 37 38 39 40 41 42 43 44 45 46 47 48 49 50 51 52 53 54 55 56 57 58 59 60 61 62 63 64 65 66 67 68 69 70 71 72 73 74 75 76 77 78 79 80 81 82 83 84 85 86 87 88 89 90 91 92 93 94 95 96 97 98 99 100 101 102 103 104 105 106 107 108 109 110 111 112 113 114 115 116 117 118 119 120 121 122 123 124 125 126 127 128 129 130 131 132 133 134 135 136 137 138 139 140 141 142 143 144 145 146 147 148 149 150 151 152 153 154 155 156 157 158