Ergebnis 1 bis 2 von 2

Thema: Kamisama Minarai: Himitsu no Cocotama [Jap-Dub][Ger-Sub][720p][HDTV] - K★S

Dieser Thread wurde noch nicht bewertet. Bewerte ihn doch, wenn er dir gefällt!
  1. #1
    Kami-sama Avatar von galudo
    Registriert seit
    Mar 2015
    Beiträge
    1.369
    Punkte
    25.903
    Errungenschaften:
    TomodachisTagger ProfiHyperaktivSenpaiGang Leader

    Kamisama Minarai: Himitsu no Cocotama [Jap-Dub][Ger-Sub][720p][HDTV] - K★S

    Kamisama Minarai: Himitsu no Cocotama
    かみさまみならい ヒミツのここたま
    Kamisama Minarai: Himitsu no Kokotama



    Kurzbeschreibung
    Cocotama sind kleine Götter, die von den Gedanken und Gefühlen von Objekten, die Menschen mit besonderer Vorsicht behandelt haben, geboren werden. Cocotamas, die noch Lehrlinge sind, erkennt man an den Eierschalen, die sie als Unterhosen tragen. Die Cocotamas nutzen geheimnisvolle Magie und trainieren sehr hart dafür, den Menschen nützlich zu sein, um ein vollständiger Gott zu werden. Sie Leben in Häusern von Menschen, bewegen sich unsichtbar im Haus herum und helfen den Menschen, Dinge wiederzufinden, die sie verloren haben, aber auch sie machen so manche Fehler.
    Format: MP4
    Sprache: Japanisch
    Untertitel: Deutsch
    Genre: Alltagsleben, Fantasy, Magie
    Größe: ~ 600 MB pro Folge | Gesamtgröße: 0,90 GB
    Dauer: ~ 24 Minuten
    Jahr: 2015
    Video: 720p
    Source: HDTV
    Subgroup / Releasegroup: Kawaii Studios

    Hoster: Share-Online | Uploaded
    Passwort: siehe unten


    Datei-Info
    Spoiler
    Code:
    General
    Complete name                  : [Kawaii_Studios] Kamisama MinaraHimitsu no Cocotama - 01.mp4
    Format                         : MPEG-4
    Format profile                 : Base Media
    Codec ID                       : isom
    File size                      : 640 MiB
    Duration                       : 24mn 39s
    Overall bit rate               : 3 631 Kbps
    Encoded date                   : UTC 2015-11-07 22:15:34
    Tagged date                    : UTC 2015-11-07 22:15:34
    
    Video
    ID                             : 1
    Format                         : AVC
    Format/Info                    : Advanced Video Codec
    Format profile                 : [email protected]
    Format settings, CABAC         : No
    Format settings, ReFrames      : 1 frame
    Codec ID                       : avc1
    Codec ID/Info                  : Advanced Video Coding
    Duration                       : 24mn 39s
    Bit rate                       : 3 502 Kbps
    Maximum bit rate               : 12.7 Mbps
    Width                          : 1 280 pixels
    Height                         : 720 pixels
    Display aspect ratio           : 16:9
    Frame rate mode                : Constant
    Frame rate                     : 23.976 fps
    Color space                    : YUV
    Chroma subsampling             : 4:2:0
    Bit depth                      : 8 bits
    Scan type                      : Progressive
    Bits/(Pixel*Frame)             : 0.158
    Stream size                    : 618 MiB (96%)
    Writing library                : x264 core 146 r2538 121396c
    Encoding settings              : cabac=0 / ref=1 / deblock=0:0:0 / analyse=0:0 / me=dia / subme=0 / psy=1 / psy_rd=1.00:0.00 / mixed_ref=0 / me_range=16 / chroma_me=1 / trellis=0 / 8x8dct=0 / cqm=0 / deadzone=21,11 / fast_pskip=1 / chroma_qp_offset=0 / threads=3 / lookahead_threads=1 / sliced_threads=0 / nr=0 / decimate=1 / interlaced=0 / bluray_compat=0 / constrained_intra=0 / bframes=0 / weightp=0 / keyint=240 / keyint_min=23 / scenecut=0 / intra_refresh=0 / rc=crf / mbtree=0 / crf=23.0 / qcomp=0.60 / qpmin=0 / qpmax=69 / qpstep=4 / ip_ratio=1.40 / aq=0
    Encoded date                   : UTC 2015-11-07 22:15:34
    Tagged date                    : UTC 2015-11-07 22:16:38
    
    Audio
    ID                             : 2
    Format                         : MPEG Audio
    Format version                 : Version 1
    Format profile                 : Layer 3
    Mode                           : Joint stereo
    Mode extension                 : MS Stereo
    Codec ID                       : 6B
    Duration                       : 24mn 39s
    Bit rate mode                  : Constant
    Bit rate                       : 128 Kbps
    Maximum bit rate               : 132 Kbps
    Channel(s)                     : 2 channels
    Sampling rate                  : 48.0 KHz
    Compression mode               : Lossy
    Stream size                    : 22.6 MiB (4%)
    Writing library                : LAME3.99r
    Encoding settings              : -m j -V 4 -q 2 -lowpass 17 -b 128
    Encoded date                   : UTC 2015-11-07 22:16:32
    Tagged date                    : UTC 2015-11-07 22:16:38
    


    Folgen 02 / 12 online
    Folgen einzeln ladbar



    || Download & Passwort ||


    Geschützter Bereich - Bedanke dich beim Poster, um den Bereich sehen zu können
    Hier erfährst Du wie Du Dich bedanken kannst oder werde jetzt Premium Mitglied ab einer Spende von 5€ und erhalte sofortigen Zugriff auf den Downloadbereich!
    Geändert von galudo (12. October 2016 um 19:30 Uhr) Grund: Folgenupdate
    SUPPORT UND REUP ANFRAGEN NUR >> [Links sind nur für registrierte und aktivierte Nutzer sichtbar. Klicke hier um dich zu registrieren.] <<
    Bitte IMMER den Thread-Link mitschicken.

  2. 3 Benutzer sagen Danke:

    Conopas (28. December 2015),midnighter (17. November 2015),Ronae (21. December 2015)

  3. #2
    Kami-sama Avatar von galudo
    Registriert seit
    Mar 2015
    Beiträge
    1.369
    Punkte
    25.903
    Errungenschaften:
    TomodachisTagger ProfiHyperaktivSenpaiGang Leader

    AW: Kamisama Minarai: Himitsu no Cocotama [Jap-Dub][Ger-Sub][720p][HDTV] - K★S

    Episode 2 Online
    SUPPORT UND REUP ANFRAGEN NUR >> [Links sind nur für registrierte und aktivierte Nutzer sichtbar. Klicke hier um dich zu registrieren.] <<
    Bitte IMMER den Thread-Link mitschicken.

Stichworte

Lesezeichen

Berechtigungen

  • Neue Themen erstellen: Nein
  • Themen beantworten: Nein
  • Anhänge hochladen: Nein
  • Beiträge bearbeiten: Nein
  •  

1 2 3 4 5 6 7 8 9 10 11 12 13 14 15 16 17 18 19 20 21 22 23 24 25 26 27 28 29 30 31 32 33 34 35 36 37 38 39 40 41 42 43 44 45 46 47 48 49 50 51 52 53 54 55 56 57 58 59 60 61 62 63 64 65 66 67 68 69 70 71 72 73 74 75 76 77 78 79 80 81 82 83 84 85 86 87 88 89 90 91 92 93 94 95 96 97 98 99 100 101 102 103 104 105 106 107 108 109 110 111 112 113 114 115 116 117 118 119 120 121 122 123 124 125 126 127 128 129 130 131 132 133 134 135 136 137 138 139 140 141 142 143 144 145 146 147 148 149 150 151 152 153 154 155 156 157 158