Ergebnis 1 bis 3 von 3

Thema: Kazemakase Tsukikage Ran [Jap-Dub][Ger-Sub][DVDRip]

Dieser Thread wurde noch nicht bewertet. Bewerte ihn doch, wenn er dir gefällt!
  1. #1
    United we Stand Avatar von 00Ryuji00
    Registriert seit
    Oct 2012
    Beiträge
    3.896
    Punkte
    99.519
    Errungenschaften:
    TomodachisGang LeaderHikikomoriTagger Amateur50000 Erfahrungspunkte

    Kazemakase Tsukikage Ran [Jap-Dub][Ger-Sub][DVDRip]

    Kazemakase Tsukikage Ran
    風まかせ月影蘭
    Tsukikage Ran
    Carried by the Wind, Ran The Samurai Girl








    Kurzbeschreibung:
    Zwei Kämpferinnen reisen durch das Japan der Edo-Periode und müssen sich zahlreichen Widersachern stellen: zum Einen wäre da eine chinesische Kampfkünstlerin, die sich selbst Lady Meow der Eisernen Katzenfaust nennt. Sie ist die Begleiterin von Ran, einer weiblichen Samurai, deren Fähigkeiten mit dem Katana nur noch von ihrer Vorliebe für Sake übertroffen wird.




    Genre: Abenteuer
    Setting: Historisch
    Tags: Action, Altes Asien, Komödie, Martial Arts, Samurai, Schwerter & Co, Streng episodisch
    Episoden: 13/13
    Sprache: Japanisch
    Untertitel: Deutsch
    Group: BAF
    Hoster: Share-online.biz, Uploaded.net



    Mediainfo

    Code:
    [color=red
    
    Format                                   : AVI
    Format/Info                              : Audio Video Interleave
    File size                                : 151 MiB
    Duration                                 : 23mn 48s
    Overall bit rate                         : 889 Kbps
    Movie name                               : Tsukikage Ran - 01 - She's Tough For A Woman
    Director                                 : Zhentarim DivX
    Subject                                  : Ripped by Danners
    Writing application                      : VirtualDubMod 1.5.4.1 (build 2066/release)
    Writing library                          : VirtualDubMod build 2066/release
    Copyright                                : Zhentarim.cjb.net | #zhentarim @ irc.chatsociety.net
    
    Video
    ID                                       : 0
    Format                                   : MPEG-4 Visual
    Format profile                           : Advanced [email protected]
    Format settings, BVOP                    : 2
    Format settings, QPel                    : No
    Format settings, GMC                     : 3 warppoints
    Format settings, Matrix                  : Default (H.263)
    Codec ID                                 : XVID
    Codec ID/Hint                            : XviD
    Duration                                 : 23mn 48s
    Bit rate                                 : 816 Kbps
    Width                                    : 640 pixels
    Height                                   : 480 pixels
    Display aspect ratio                     : 4:3
    Frame rate                               : 23.976 fps
    Color space                              : YUV
    Chroma subsampling                       : 4:2:0
    Bit depth                                : 8 bits
    Scan type                                : Progressive
    Compression mode                         : Lossy
    Bits/(Pixel*Frame)                       : 0.111
    Stream size                              : 139 MiB (92%)
    Writing library                          : XviD 1.0.0 (UTC 2004-05-09)
    
    Audio
    ID                                       : 1
    Format                                   : MPEG Audio
    Format version                           : Version 2
    Format profile                           : Layer 3
    Mode                                     : Joint stereo
    Mode extension                           : Intensity Stereo + MS Stereo
    Codec ID                                 : 55
    Codec ID/Hint                            : MP3
    Duration                                 : 23mn 48s
    Bit rate mode                            : Constant
    Bit rate                                 : 64.0 Kbps
    Channel count                            : 2 channels
    Sampling rate                            : 24.0 KHz
    Compression mode                         : Lossy
    Stream size                              : 10.9 MiB (7%)
    Alignment                                : Split accross interleaves
    Interleave, duration                     : 42 ms (1.00 video frame)
    Interleave, preload duration             : 500 ms
    
    [/color]



    Geschützter Bereich - Bedanke dich beim Poster, um den Bereich sehen zu können
    Hier erfährst Du wie Du Dich bedanken kannst oder werde jetzt Premium Mitglied ab einer Spende von 5€ und erhalte sofortigen Zugriff auf den Downloadbereich!







    Geändert von Tet2 (8. November 2014 um 18:39 Uhr)
    !!!Alle Anliegen bezüglich Uploads werden nur mit direktem Threadlink zum Angebot bearbeitet!!!

    Re-Uploadanfragen nur per PN - Ihr könnt mir auch Listen schicken

    Re-Uploads erfolgen meist innerhalb 24h, kann aber auch bis zu 7 Tage dauern

    [Links sind nur für registrierte und aktivierte Nutzer sichtbar. Klicke hier um dich zu registrieren.] | [Links sind nur für registrierte und aktivierte Nutzer sichtbar. Klicke hier um dich zu registrieren.] | >[Links sind nur für registrierte und aktivierte Nutzer sichtbar. Klicke hier um dich zu registrieren.]<
    [Links sind nur für registrierte und aktivierte Nutzer sichtbar. Klicke hier um dich zu registrieren.]

  2. 17 Benutzer sagen Danke:

    Antipott (8. February 2016),Asturaetus (30. November 2014),Bloodywaffe (19. January 2016),blubbler_inactive (11. March 2015),chopper23 (30. April 2015),Etho89 (15. May 2015),herrwefer (14. June 2016),kenshin057 (31. December 2014),Kitefist (9. March 2014),Melijal (2. July 2015),midnighter (6. January 2015),Onkelmolan (19. November 2015),Shenra (27. July 2015),SnowCat (22. October 2013),Tzi (13. June 2015),Zaisen (24. October 2013)

  3. #2
    United we Stand Avatar von 00Ryuji00
    Registriert seit
    Oct 2012
    Beiträge
    3.896
    Punkte
    99.519
    Errungenschaften:
    TomodachisGang LeaderHikikomoriTagger Amateur50000 Erfahrungspunkte

    AW: Kazemakase Tsukikage Ran [Jap-Dub][Ger-Sub][DVDRip]

    Update: Re-Upload aller Dateien.
    !!!Alle Anliegen bezüglich Uploads werden nur mit direktem Threadlink zum Angebot bearbeitet!!!

    Re-Uploadanfragen nur per PN - Ihr könnt mir auch Listen schicken

    Re-Uploads erfolgen meist innerhalb 24h, kann aber auch bis zu 7 Tage dauern

    [Links sind nur für registrierte und aktivierte Nutzer sichtbar. Klicke hier um dich zu registrieren.] | [Links sind nur für registrierte und aktivierte Nutzer sichtbar. Klicke hier um dich zu registrieren.] | >[Links sind nur für registrierte und aktivierte Nutzer sichtbar. Klicke hier um dich zu registrieren.]<
    [Links sind nur für registrierte und aktivierte Nutzer sichtbar. Klicke hier um dich zu registrieren.]

  4. #3
    United we Stand Avatar von 00Ryuji00
    Registriert seit
    Oct 2012
    Beiträge
    3.896
    Punkte
    99.519
    Errungenschaften:
    TomodachisGang LeaderHikikomoriTagger Amateur50000 Erfahrungspunkte

    AW: Kazemakase Tsukikage Ran [Jap-Dub][Ger-Sub][DVDRip]

    Update: Neue verbesserte Version der Fansubgruppe online.
    !!!Alle Anliegen bezüglich Uploads werden nur mit direktem Threadlink zum Angebot bearbeitet!!!

    Re-Uploadanfragen nur per PN - Ihr könnt mir auch Listen schicken

    Re-Uploads erfolgen meist innerhalb 24h, kann aber auch bis zu 7 Tage dauern

    [Links sind nur für registrierte und aktivierte Nutzer sichtbar. Klicke hier um dich zu registrieren.] | [Links sind nur für registrierte und aktivierte Nutzer sichtbar. Klicke hier um dich zu registrieren.] | >[Links sind nur für registrierte und aktivierte Nutzer sichtbar. Klicke hier um dich zu registrieren.]<
    [Links sind nur für registrierte und aktivierte Nutzer sichtbar. Klicke hier um dich zu registrieren.]

  5. 1 Benutzer sagt Danke:

    chopper23 (14. June 2016)

Lesezeichen

Berechtigungen

  • Neue Themen erstellen: Nein
  • Themen beantworten: Nein
  • Anhänge hochladen: Nein
  • Beiträge bearbeiten: Nein
  •  

1 2 3 4 5 6 7 8 9 10 11 12 13 14 15 16 17 18 19 20 21 22 23 24 25 26 27 28 29 30 31 32 33 34 35 36 37 38 39 40 41 42 43 44 45 46 47 48 49 50 51 52 53 54 55 56 57 58 59 60 61 62 63 64 65 66 67 68 69 70 71 72 73 74 75 76 77 78 79 80 81 82 83 84 85 86 87 88 89 90 91 92 93 94 95 96 97 98 99 100 101 102 103 104 105 106 107 108 109 110 111 112 113 114 115 116 117 118 119 120 121 122 123 124 125 126 127 128 129 130 131 132 133 134 135 136 137 138 139 140 141 142 143 144 145 146 147 148 149 150 151 152 153 154 155 156 157 158