Ergebnis 1 bis 1 von 1

Thema: Kiss Dum: Engage Planet + OVA [Jap-Dub][Ger-Sub][720p][Bluray]

Dieser Thread wurde noch nicht bewertet. Bewerte ihn doch, wenn er dir gefällt!
  1. #1
    United we Stand Avatar von 00Ryuji00
    Registriert seit
    Oct 2012
    Beiträge
    3.902
    Punkte
    99.823
    Errungenschaften:
    TomodachisGang LeaderHikikomoriTagger Amateur50000 Erfahrungspunkte

    Kiss Dum: Engage Planet + OVA [Jap-Dub][Ger-Sub][720p][Bluray]

    Kiss Dum: Engage Planet
    キスダム -ENGAGE planet-
    Engage Planet Kiss Dum
    Kiss Dum
    KISSDUMN -ENGAGE planet-






    Kurzbeschreibung:
    Im Jahr 2031 taucht ein mächtiges, dolchförmiges Artefakt namens "Buch des Todes" auf dem Grund des Pazifiks auf und verursacht seltsame Mutationen bei den Meeresbewohnern. Die neu entstandenen Wesen werden "Hadeans" genannt und stellen durch ihre rasante Vermehrung eine Bedrohung für die menschliche Bevölkerung dar.

    Zur Erforschung und zum Schutz vor den "Hadeans" wird die N.I.D.F. (Neo International Defence Force) ins Leben gerufen. Sie hofft, mit Hilfe des "Buch des Todes", die Invasion aus dem Meer verhindern zu können.

    Doch bevor ihre Wissenschaftler es finden können, versammeln sich im Luftraum um Tokio riesige Schwärme aus unzähligen Fliegen. Aus ihnen formen sich gigantische, hässliche Ungetüme.

    Als alle Bemühungen, die Stadt zu verteidigen, scheitern, wird der junge Pilot Shu Aiba zur letzten Hoffnung im Kampf um das Überleben der Menschheit.


    Sprache: Japanisch
    Untertitel: Deutsch
    Episodenanzahl: 26/26 + Ep. 03.5 + OVA 1/1
    Format: .mp4
    Auflösung: 720p (16:9)
    Codec: x264
    Gruppe: C-Subs
    Hoster: Share-Online ; Uploaded


    Datei Info:
    Spoiler

    Code:
    
    
    Format                                   : MPEG-4
    Format profile                           : Base Media
    Codec ID                                 : isom
    File size                                : 348 MiB
    Duration                                 : 23mn 21s
    Overall bit rate mode                    : Variable
    Overall bit rate                         : 2 082 Kbps
    Encoded date                             : UTC 2012-12-23 02:14:47
    Tagged date                              : UTC 2012-12-23 02:14:47
    
    Video
    ID                                       : 1
    Format                                   : AVC
    Format/Info                              : Advanced Video Codec
    Format profile                           : [email protected]
    Format settings, CABAC                   : Yes
    Format settings, ReFrames                : 16 frames
    Codec ID                                 : avc1
    Codec ID/Info                            : Advanced Video Coding
    Duration                                 : 23mn 21s
    Bit rate                                 : 1 823 Kbps
    Maximum bit rate                         : 11.4 Mbps
    Width                                    : 1 280 pixels
    Height                                   : 720 pixels
    Display aspect ratio                     : 16:9
    Frame rate mode                          : Constant
    Frame rate                               : 23.976 fps
    Color space                              : YUV
    Chroma subsampling                       : 4:2:0
    Bit depth                                : 8 bits
    Scan type                                : Progressive
    Bits/(Pixel*Frame)                       : 0.082
    Stream size                              : 305 MiB (88%)
    Writing library                          : x264 core 125 r2200 999b753
    Encoding settings                        : cabac=1 / ref=16 / deblock=1:0:0 / analyse=0x3:0x133 / me=umh / subme=10 / psy=1 / psy_rd=1.00:0.00 / mixed_ref=1 / me_range=24 / chroma_me=1 / trellis=2 / 8x8dct=1 / cqm=0 / deadzone=21,11 / fast_pskip=1 / chroma_qp_offset=-2 / threads=12 / lookahead_threads=2 / sliced_threads=0 / nr=0 / decimate=1 / interlaced=0 / bluray_compat=0 / constrained_intra=0 / bframes=8 / b_pyramid=2 / b_adapt=2 / b_bias=0 / direct=3 / weightb=1 / open_gop=0 / weightp=2 / keyint=240 / keyint_min=23 / scenecut=40 / intra_refresh=0 / rc_lookahead=60 / rc=crf / mbtree=1 / crf=18.0 / qcomp=0.60 / qpmin=10 / qpmax=51 / qpstep=4 / ip_ratio=1.40 / aq=1:1.00
    Encoded date                             : UTC 2012-12-23 01:11:56
    Tagged date                              : UTC 2012-12-23 02:14:47
    
    Audio
    ID                                       : 2
    Format                                   : AAC
    Format/Info                              : Advanced Audio Codec
    Format profile                           : LC
    Codec ID                                 : 40
    Duration                                 : 23mn 21s
    Bit rate mode                            : Variable
    Bit rate                                 : 256 Kbps
    Maximum bit rate                         : 315 Kbps
    Channel count                            : 2 channels
    Channel positions                        : Front: L R
    Sampling rate                            : 48.0 KHz
    Compression mode                         : Lossy
    Stream size                              : 42.8 MiB (12%)
    Encoded date                             : UTC 2012-12-23 02:14:47
    Tagged date                              : UTC 2012-12-23 02:14:47
    
    





    Geschützter Bereich - Bedanke dich beim Poster, um den Bereich sehen zu können
    Hier erfährst Du wie Du Dich bedanken kannst oder werde jetzt Premium Mitglied ab einer Spende von 5€ und erhalte sofortigen Zugriff auf den Downloadbereich!

    !!!Alle Anliegen bezüglich Uploads werden nur mit direktem Threadlink zum Angebot bearbeitet!!!

    Re-Uploadanfragen nur per PN - Ihr könnt mir auch Listen schicken

    Re-Uploads erfolgen meist innerhalb 24h, kann aber auch bis zu 7 Tage dauern

    [Links sind nur für registrierte und aktivierte Nutzer sichtbar. Klicke hier um dich zu registrieren.] | [Links sind nur für registrierte und aktivierte Nutzer sichtbar. Klicke hier um dich zu registrieren.] | >[Links sind nur für registrierte und aktivierte Nutzer sichtbar. Klicke hier um dich zu registrieren.]<
    [Links sind nur für registrierte und aktivierte Nutzer sichtbar. Klicke hier um dich zu registrieren.]

  2. 15 Benutzer sagen Danke:

    Akio (19. November 2015),Akulti (4. August 2015),Aluaran (5. August 2015),DarkChaos (4. August 2015),Extraneis (25. November 2015),frankra (17. April 2016),julian.schuh (10. October 2015),Miauundso (12. September 2015),midnighter (5. August 2015),napalmklaus (23. September 2015),NobodyX1 (22. August 2015),old nick (12. September 2015),paulito.1 (4. August 2015),SONNYxq (4. August 2015),Tzi (8. August 2015)

Lesezeichen

Berechtigungen

  • Neue Themen erstellen: Nein
  • Themen beantworten: Nein
  • Anhänge hochladen: Nein
  • Beiträge bearbeiten: Nein
  •  

1 2 3 4 5 6 7 8 9 10 11 12 13 14 15 16 17 18 19 20 21 22 23 24 25 26 27 28 29 30 31 32 33 34 35 36 37 38 39 40 41 42 43 44 45 46 47 48 49 50 51 52 53 54 55 56 57 58 59 60 61 62 63 64 65 66 67 68 69 70 71 72 73 74 75 76 77 78 79 80 81 82 83 84 85 86 87 88 89 90 91 92 93 94 95 96 97 98 99 100 101 102 103 104 105 106 107 108 109 110 111 112 113 114 115 116 117 118 119 120 121 122 123 124 125 126 127 128 129 130 131 132 133 134 135 136 137 138 139 140 141 142 143 144 145 146 147 148 149 150 151 152 153 154 155 156 157 158