Ergebnis 1 bis 1 von 1

Thema: KissXSis [Jap-Dub][Ger-Sub][720p][HDTV]-OS

Dieser Thread wurde noch nicht bewertet. Bewerte ihn doch, wenn er dir gefällt!
  1. #1
    United we Stand Avatar von 00Ryuji00
    Registriert seit
    Oct 2012
    Beiträge
    3.902
    Punkte
    100.092
    Errungenschaften:
    TomodachisGang LeaderHikikomoriTagger Amateur50000 Erfahrungspunkte

    KissXSis [Jap-Dub][Ger-Sub][720p][HDTV]-OS


    KissXSis
    キス×シス
    kxs
    Kiss X Sis OAD






    Kurzbeschreibung:
    Zitat Zitat von AniSearch.com
    Keita hat zwei Stiefschwestern, die ihn lieben und dies auch offen zeigen. In der Öffentlichkeit halten sie sich auch nicht zurück und das ist Keita sehr unangenehm. Keita versucht dies zu ertragen, doch eines Tages wird ihm das zu viel, er explodiert förmlich und schreit seine Schwestern mitten in der Öffentlichkeit an. Gekränkt gestehen die beiden ihm ihre Gefühle und suchen das Weite. Keita, vom schlechten Gewissen geplagt, entschuldigt sich bei ihnen und schwört, dass er hart lernen wird, um mit ihnen auf der gleichen High School zu studieren.


    Spieldauer: 24min
    Genre: Romantische Komödie
    Nebengenres: Ecchi, Komödie, Männlich, Romanze
    Jahr: 2008
    Sprache: Japanisch
    Untertitel: Deutsch
    Größe pro Folge: ~334 MiB
    Episodenanzahl: 12/12
    Format: MP4
    Auflösung: 720p (16:9)
    Videocodec: x264 (AVC)
    Audiocodec: MPEG Audio
    Releasegruppe: Offline-Subs
    Hoster: Share-Online, Uploaded


    MediaInfo
    Code:
    
    Format                                   : MPEG-4
    Format profile                           : Base Media
    Codec ID                                 : isom
    File size                                : 334 MiB
    Duration                                 : 24mn 14s
    Overall bit rate mode                    : Variable
    Overall bit rate                         : 1 925 Kbps
    Encoded date                             : UTC 2010-04-08 21:56:40
    Tagged date                              : UTC 2010-04-08 21:56:40
    
    Video
    ID                                       : 1
    Format                                   : AVC
    Format/Info                              : Advanced Video Codec
    Format profile                           : [email protected]
    Format settings, CABAC                   : Yes
    Format settings, ReFrames                : 3 frames
    Codec ID                                 : avc1
    Codec ID/Info                            : Advanced Video Coding
    Duration                                 : 24mn 14s
    Bit rate                                 : 1 800 Kbps
    Maximum bit rate                         : 6 322 Kbps
    Width                                    : 1 280 pixels
    Height                                   : 720 pixels
    Display aspect ratio                     : 16:9
    Frame rate mode                          : Constant
    Frame rate                               : 23.976 fps
    Color space                              : YUV
    Chroma subsampling                       : 4:2:0
    Bit depth                                : 8 bits
    Scan type                                : Progressive
    Bits/(Pixel*Frame)                       : 0.081
    Stream size                              : 312 MiB (94%)
    Writing library                          : x264 core 65 r999kMod cc51047
    Encoding settings                        : cabac=1 / ref=3 / deblock=1:0:0 / analyse=0x3:0x133 / me=umh / subme=6 / psy_rd=1.0:0.0 / mixed_ref=1 / me_range=16 / chroma_me=1 / trellis=1 / 8x8dct=1 / cqm=0 / deadzone=21,11 / chroma_qp_offset=-2 / threads=4 / thread_queue=4 / nr=0 / decimate=1 / mbaff=0 / bframes=3 / b_pyramid=1 / b_adapt=1 / b_bias=0 / direct=3 / wpredb=1 / keyint=250 / keyint_min=25 / scenecut=40(pre) / rc=2pass / bitrate=1800 / ratetol=1.0 / qcomp=0.60 / qpmin=10 / qpmax=51 / qpstep=4 / cplxblur=20.0 / qblur=0.5 / ip_ratio=1.40 / pb_ratio=1.30 / aq=1:1.00
    Encoded date                             : UTC 2010-04-08 21:56:40
    Tagged date                              : UTC 2010-04-08 21:56:44
    
    Audio
    ID                                       : 2
    Format                                   : MPEG Audio
    Format version                           : Version 1
    Format profile                           : Layer 3
    Codec ID                                 : 6B
    Duration                                 : 24mn 14s
    Bit rate mode                            : Variable
    Bit rate                                 : 121 Kbps
    Nominal bit rate                         : 128 Kbps
    Maximum bit rate                         : 137 Kbps
    Channel(s)                               : 2 channels
    Sampling rate                            : 48.0 KHz
    Compression mode                         : Lossy
    Stream size                              : 21.0 MiB (6%)
    Writing library                          : LAME3.97 
    Encoding settings                        : -m s -V 4 -q 2 -lowpass 17 --abr 128
    Encoded date                             : UTC 2010-04-08 21:56:44
    Tagged date                              : UTC 2010-04-08 21:56:44
    
    






    Geschützter Bereich - Bedanke dich beim Poster, um den Bereich sehen zu können
    Hier erfährst Du wie Du Dich bedanken kannst oder werde jetzt Premium Mitglied ab einer Spende von 5€ und erhalte sofortigen Zugriff auf den Downloadbereich!



    [Links sind nur für registrierte und aktivierte Nutzer sichtbar. Klicke hier um dich zu registrieren.]
    Geändert von so1k (12. October 2016 um 20:36 Uhr)
    !!!Alle Anliegen bezüglich Uploads werden nur mit direktem Threadlink zum Angebot bearbeitet!!!

    Re-Uploadanfragen nur per PN - Ihr könnt mir auch Listen schicken

    Re-Uploads folgen nach Anfrage meist am Wochenende

    [Links sind nur für registrierte und aktivierte Nutzer sichtbar. Klicke hier um dich zu registrieren.] | [Links sind nur für registrierte und aktivierte Nutzer sichtbar. Klicke hier um dich zu registrieren.] | >[Links sind nur für registrierte und aktivierte Nutzer sichtbar. Klicke hier um dich zu registrieren.]<
    [Links sind nur für registrierte und aktivierte Nutzer sichtbar. Klicke hier um dich zu registrieren.]

  2. 16 Benutzer sagen Danke:

    Akio (6. February 2016),BlackDragon333 (13. January 2016),BlackReaper (10. May 2016),coldbears48 (12. January 2016),ElCapitan (15. February 2016),glolfighter (31. March 2016),HerzogZepar (20. March 2016),kashmael (11. April 2016),KelioN (24. January 2016),Leopon (16. January 2016),midnighter (20. January 2016),Miriweth (8. November 2016),MX-sk (18. June 2016),Rias10000 (27. May 2016),Schun (25. April 2016),Tidus18 (4. March 2016)

Lesezeichen

Berechtigungen

  • Neue Themen erstellen: Nein
  • Themen beantworten: Nein
  • Anhänge hochladen: Nein
  • Beiträge bearbeiten: Nein
  •  

1 2 3 4 5 6 7 8 9 10 11 12 13 14 15 16 17 18 19 20 21 22 23 24 25 26 27 28 29 30 31 32 33 34 35 36 37 38 39 40 41 42 43 44 45 46 47 48 49 50 51 52 53 54 55 56 57 58 59 60 61 62 63 64 65 66 67 68 69 70 71 72 73 74 75 76 77 78 79 80 81 82 83 84 85 86 87 88 89 90 91 92 93 94 95 96 97 98 99 100 101 102 103 104 105 106 107 108 109 110 111 112 113 114 115 116 117 118 119 120 121 122 123 124 125 126 127 128 129 130 131 132 133 134 135 136 137 138 139 140 141 142 143 144 145 146 147 148 149 150 151 152 153 154 155 156 157 158