Ergebnis 1 bis 1 von 1

Thema: Koe de Oshigoto! The Animation [Ger Sub][Jap DUb][720p][HDTV]

Dieser Thread wurde noch nicht bewertet. Bewerte ihn doch, wenn er dir gefällt!
  1. #1
    Uploader Avatar von Filbo11
    Registriert seit
    Jan 2015
    Beiträge
    926
    Punkte
    17.174
    Errungenschaften:
    TomodachisErste Gruppe1 Jahr registriertCreated Album picturesTagger First Class

    Koe de Oshigoto! The Animation [Ger Sub][Jap DUb][720p][HDTV]




    Handlung

    Aoyagi Kanna führt ein ziemlich unspektakuläres Schülerleben, bis sie an ihrem sechzehnten Geburtstag von ihrer in der Eroge-Industrie arbeitenden Schwester gebeten wird, als Synchronsprecherin in ihrem Unternehmen zu arbeiten. Nach etwas Widerstand stimmt sie zu, steht nun aber vor dem Problem, dass sie nicht nur fachlich unerfahren ist, sondern auch selbst noch ein ziemlich unschuldiges Gemüt hat.


    Sprache: Japanisch
    Untertitel: Deutsch
    Spieldauer: 30 Min
    Größe: 262 & 400 mb
    Episodenanzahl: 2/2
    Format: mp4
    Auflösung: 1280x720
    Source: HDTV
    Codec: x264
    Group: Morai-Subs
    Hoster: Uploaded.net, Share-Online.biz
    kein PW


    Info

    Spoiler
    Spoiler
    [Links sind nur für registrierte und aktivierte Nutzer sichtbar. Klicke hier um dich zu registrieren.]

    General

    Format : MPEG-4
    Format profile : Base Media
    Codec ID : isom
    File size : 400 MiB
    Duration : 30mn 9s
    Overall bit rate mode : Variable
    Overall bit rate : 1 856 Kbps


    Video
    ID : 1
    Format : AVC
    Format/Info : Advanced Video Codec
    Format profile : [email protected]
    Format settings, CABAC : Yes
    Format settings, ReFrames : 10 frames
    Codec ID : avc1
    Codec ID/Info : Advanced Video Coding
    Duration : 30mn 8s
    Bit rate : 1 773 Kbps
    Maximum bit rate : 15.3 Mbps
    Width : 1 280 pixels
    Height : 720 pixels
    Display aspect ratio : 16:9
    Frame rate mode : Constant
    Frame rate : 23.976 fps
    Color space : YUV
    Chroma subsampling : 4:2:0
    Bit depth : 8 bits
    Scan type : Progressive
    Bits/(Pixel*Frame) : 0.080
    Stream size : 383 MiB (96%)
    Title : Video
    Writing library : x264 core 105 r1724 b02df7b


    Audio
    ID : 2
    Format : AAC
    Format/Info : Advanced Audio Codec
    Format profile : HE-AAC / LC
    Codec ID : 40
    Duration : 30mn 9s
    Bit rate mode : Variable
    Bit rate : 79.3 Kbps
    Maximum bit rate : 105 Kbps
    Channel(s) : 2 channels
    Channel positions : Front: L R
    Sampling rate : 48.0 KHz / 24.0 KHz
    Compression mode : Lossy
    Stream size : 17.1 MiB (4%)
    Language : Japanese





    Download
    Geschützter Bereich - Bedanke dich beim Poster, um den Bereich sehen zu können
    Hier erfährst Du wie Du Dich bedanken kannst oder werde jetzt Premium Mitglied ab einer Spende von 5€ und erhalte sofortigen Zugriff auf den Downloadbereich!



    Geändert von Filbo11 (12. April 2016 um 10:23 Uhr) Grund: hoster hinzugefügt

  2. 24 Benutzer sagen Danke:

    ソウル イーター  (12. April 2015),Aluaran (14. January 2015),Kox598 (6. January 2016),kutschi (18. January 2015),LawrenceKraft (1. February 2015),Leopon (16. February 2016),Linpos (27. April 2015),LOL Meister (28. December 2015),midnighter (14. January 2015),Miles360 (14. January 2015),Murtagks (26. February 2015),neocx (27. March 2016),Nonescope (13. January 2015),ReGGiZz (19. April 2015),Ronae (13. January 2015),sami123 (22. March 2015),Se.phi.roth (12. April 2016),SnowCat (2. February 2015),ssj3shad (14. January 2015),Superzorro (22. February 2016),TheRocket (15. January 2015),Tidus18 (10. April 2016),UndeadBan (1. July 2015),Zeroxar (11. February 2015)

Lesezeichen

Berechtigungen

  • Neue Themen erstellen: Nein
  • Themen beantworten: Nein
  • Anhänge hochladen: Nein
  • Beiträge bearbeiten: Nein
  •  

1 2 3 4 5 6 7 8 9 10 11 12 13 14 15 16 17 18 19 20 21 22 23 24 25 26 27 28 29 30 31 32 33 34 35 36 37 38 39 40 41 42 43 44 45 46 47 48 49 50 51 52 53 54 55 56 57 58 59 60 61 62 63 64 65 66 67 68 69 70 71 72 73 74 75 76 77 78 79 80 81 82 83 84 85 86 87 88 89 90 91 92 93 94 95 96 97 98 99 100 101 102 103 104 105 106 107 108 109 110 111 112 113 114 115 116 117 118 119 120 121 122 123 124 125 126 127 128 129 130 131 132 133 134 135 136 137 138 139 140 141 142 143 144 145 146 147 148 149 150 151 152 153 154 155 156 157 158