Ergebnis 1 bis 1 von 1

Thema: Kono Aozora ni Yakusoku o: Youkoso Tsugumi Ryou e [Jap-Dub][Ger-Sub][576p][DVDRip]-NaSu

Dieser Thread wurde noch nicht bewertet. Bewerte ihn doch, wenn er dir gefällt!
  1. #1
    United we Stand Avatar von 00Ryuji00
    Registriert seit
    Oct 2012
    Beiträge
    3.902
    Punkte
    100.019
    Errungenschaften:
    TomodachisGang LeaderHikikomoriTagger Amateur50000 Erfahrungspunkte

    Kono Aozora ni Yakusoku o: Youkoso Tsugumi Ryou e [Jap-Dub][Ger-Sub][576p][DVDRip]-NaSu


    Kono Aozora ni Yakusoku o: Youkoso Tsugumi Ryou e
    この青空に約束を― ~ようこそつぐみ寮へ~
    Kono Aozora ni Yakusoku wo
    The Promise I made over this Blue Sky
    Konnyaku






    Kurzbeschreibung:
    Zitat Zitat von AniSearch.com
    Eines Morgens findet Wataru Hoshino plötzlich ein schlafendes Mädchen in nichts außer ihrer Unterwäsche in seinem Raum. Als sie aufwacht, flieht sie fix, indem sie aus dem Fenster springt, aber nicht ohne vorher Wataru noch ins Gesicht zu schlagen. Es stellt sich heraus, dass es sich bei dem Mädchen, Rinna Sawaki, um eine Austauschschülerin handelt, die zu allem Überfluss nun auch in dem selben Wohnheim wie er wohnt. Neben Wataru leben in dem Wohnheim noch vier Mädchen sowie ein Lehrer. Aber weil die Temizugawa Schwerindustrie ihre Außenstelle dort nicht mehr haben will, die immerhin die größte Firma auf South Sakojima Island ist, müssen alle Familien, die mit der Firma zu tun haben, innerhalb eines Jahres die Insel verlassen. Da Rinna sich dieser Tatsache bewusst ist, möchte sie keine Freundschaften schließen, denn sie hat Angst vor der schmerzhaften Erfahrung dann von den anderen getrennt zu werden. Doch Wataru sieht ihren Standpunkt nicht ein und versucht sie zu überzeugen sich doch mit ihnen anzufreunden.


    Spieldauer: 25min
    Genre: Alltagsdrama
    Nebengenres: Alltagsleben, Drama, Harem, Komödie, Romanze
    Jahr: 2007
    Sprache: Japanisch
    Untertitel: Deutsch
    Größe pro Folge: ~309 MiB
    Episodenanzahl: 13/13
    Format: MP4
    Auflösung: 576p (16:9)
    Videocodec: x264 (AVC)
    Audiocodec: AAC
    Releasegruppe: Naked-Subs
    Hoster: Share-Online, Uploaded


    MediaInfo
    Code:
    
    Format                                   : MPEG-4
    Format profile                           : Base Media
    Codec ID                                 : isom
    File size                                : 309 MiB
    Duration                                 : 25mn 29s
    Overall bit rate mode                    : Variable
    Overall bit rate                         : 1 693 Kbps
    Encoded date                             : UTC 2012-11-17 22:00:58
    Tagged date                              : UTC 2012-11-17 22:00:58
    
    Video
    ID                                       : 1
    Format                                   : AVC
    Format/Info                              : Advanced Video Codec
    Format profile                           : [email protected]
    Format settings, CABAC                   : Yes
    Format settings, ReFrames                : 5 frames
    Codec ID                                 : avc1
    Codec ID/Info                            : Advanced Video Coding
    Duration                                 : 25mn 29s
    Bit rate                                 : 1 500 Kbps
    Maximum bit rate                         : 5 669 Kbps
    Width                                    : 1 024 pixels
    Height                                   : 576 pixels
    Display aspect ratio                     : 16:9
    Frame rate mode                          : Constant
    Frame rate                               : 23.976 fps
    Color space                              : YUV
    Chroma subsampling                       : 4:2:0
    Bit depth                                : 8 bits
    Scan type                                : Progressive
    Bits/(Pixel*Frame)                       : 0.106
    Stream size                              : 273 MiB (88%)
    Writing library                          : x264 core 125 r2208 d9d2288
    Encoding settings                        : cabac=1 / ref=6 / deblock=1:1:1 / analyse=0x3:0x113 / me=hex / subme=6 / psy=1 / psy_rd=1.00:0.00 / mixed_ref=1 / me_range=16 / chroma_me=1 / trellis=1 / 8x8dct=1 / cqm=0 / deadzone=21,11 / fast_pskip=1 / chroma_qp_offset=-2 / threads=12 / lookahead_threads=2 / sliced_threads=0 / nr=0 / decimate=1 / interlaced=0 / bluray_compat=0 / constrained_intra=0 / bframes=3 / b_pyramid=1 / b_adapt=1 / b_bias=0 / direct=1 / weightb=1 / open_gop=0 / weightp=2 / keyint=250 / keyint_min=25 / scenecut=40 / intra_refresh=0 / rc_lookahead=30 / rc=2pass / mbtree=1 / bitrate=1500 / ratetol=1.0 / qcomp=0.60 / qpmin=0 / qpmax=69 / qpstep=4 / cplxblur=20.0 / qblur=0.5 / vbv_maxrate=8000 / vbv_bufsize=750 / nal_hrd=none / ip_ratio=1.40 / aq=1:0.60
    Encoded date                             : UTC 2012-11-17 22:00:58
    Tagged date                              : UTC 2012-11-17 22:01:02
    
    Audio
    ID                                       : 2
    Format                                   : AAC
    Format/Info                              : Advanced Audio Codec
    Format profile                           : LC
    Codec ID                                 : 40
    Duration                                 : 25mn 29s
    Bit rate mode                            : Variable
    Bit rate                                 : 192 Kbps
    Maximum bit rate                         : 198 Kbps
    Channel(s)                               : 2 channels
    Channel positions                        : Front: L R
    Sampling rate                            : 48.0 KHz
    Compression mode                         : Lossy
    Stream size                              : 35.0 MiB (11%)
    Encoded date                             : UTC 2012-11-17 22:01:02
    Tagged date                              : UTC 2012-11-17 22:01:02
    
    






    Geschützter Bereich - Bedanke dich beim Poster, um den Bereich sehen zu können
    Hier erfährst Du wie Du Dich bedanken kannst oder werde jetzt Premium Mitglied ab einer Spende von 5€ und erhalte sofortigen Zugriff auf den Downloadbereich!



    [Links sind nur für registrierte und aktivierte Nutzer sichtbar. Klicke hier um dich zu registrieren.]
    Geändert von so1k (12. October 2016 um 20:23 Uhr)
    !!!Alle Anliegen bezüglich Uploads werden nur mit direktem Threadlink zum Angebot bearbeitet!!!

    Re-Uploadanfragen nur per PN - Ihr könnt mir auch Listen schicken

    Re-Uploads erfolgen meist innerhalb 24h, kann aber auch bis zu 7 Tage dauern

    [Links sind nur für registrierte und aktivierte Nutzer sichtbar. Klicke hier um dich zu registrieren.] | [Links sind nur für registrierte und aktivierte Nutzer sichtbar. Klicke hier um dich zu registrieren.] | >[Links sind nur für registrierte und aktivierte Nutzer sichtbar. Klicke hier um dich zu registrieren.]<
    [Links sind nur für registrierte und aktivierte Nutzer sichtbar. Klicke hier um dich zu registrieren.]

  2. 13 Benutzer sagen Danke:

    Akio (31. January 2016),Angel86 (31. December 2015),exterminus (30. December 2015),GammaWar (30. December 2015),heikobaer (30. December 2015),Latyr (1. January 2016),midnighter (31. December 2015),old nick (30. December 2015),prinzvegeta (5. January 2016),Ronae (30. December 2015),Sandy7580 (30. December 2015),TheYoAsakura (31. December 2015),Tzi (30. December 2015)

Lesezeichen

Berechtigungen

  • Neue Themen erstellen: Nein
  • Themen beantworten: Nein
  • Anhänge hochladen: Nein
  • Beiträge bearbeiten: Nein
  •  

1 2 3 4 5 6 7 8 9 10 11 12 13 14 15 16 17 18 19 20 21 22 23 24 25 26 27 28 29 30 31 32 33 34 35 36 37 38 39 40 41 42 43 44 45 46 47 48 49 50 51 52 53 54 55 56 57 58 59 60 61 62 63 64 65 66 67 68 69 70 71 72 73 74 75 76 77 78 79 80 81 82 83 84 85 86 87 88 89 90 91 92 93 94 95 96 97 98 99 100 101 102 103 104 105 106 107 108 109 110 111 112 113 114 115 116 117 118 119 120 121 122 123 124 125 126 127 128 129 130 131 132 133 134 135 136 137 138 139 140 141 142 143 144 145 146 147 148 149 150 151 152 153 154 155 156 157 158