Ergebnis 1 bis 1 von 1

Thema: Kosuke-sama Rikimaru-sama: Konpeitou no Ryuu [Jap-Dub][Ger-Sub][480p][DVDRip] - HRS

Dieser Thread wurde noch nicht bewertet. Bewerte ihn doch, wenn er dir gefällt!
  1. #1
    Kami-sama Avatar von galudo
    Registriert seit
    Mar 2015
    Beiträge
    1.369
    Punkte
    25.903
    Errungenschaften:
    TomodachisTagger ProfiHyperaktivSenpaiGang Leader

    Kosuke-sama Rikimaru-sama: Konpeitou no Ryuu [Jap-Dub][Ger-Sub][480p][DVDRip] - HRS

    Kosuke-sama Rikimaru-sama: Konpeitou no Ryuu
    Kosuke and Rikimaru: Dragon of Konpei Island
    Kosuke-sama und Rikimaru-sama - Der Drache der Konpei-Insel



    Kurzbeschreibung
    OVA basiert auf einen anderen Manga von Akira Toriyama
    Ähnlich wie Dragonball ist dies eine Abenteuergeschichte mit Kampfkunstelementen, wo selbst die Schurken starke Parallelen zur Red Ribbon-Armee aus Dragonball aufweisen und selbst der Drache, der in der Serie erscheint, ist Son-Gohan seinem Haiya Drachen sehr ähnlich.
    Format: MKV
    Sprache: Japanisch
    Untertitel: Deutsch
    Genre: Abenteuer, Action, Comedy, Fantasy, Martial-Arts, Shounen, Slapstick
    Größe: ~ 660 MB
    Dauer: ~ 47 Minuten
    Jahr: 1988
    Video: 720 x 480
    Source: DVD
    Subgroup / Releasegroup: Houshi-Roshi-Subs

    Hoster: Share-Online | Uploaded
    Passwort: siehe unten
    Onlinestatus:


    Datei-Info
    Spoiler
    Code:
    General
    Unique ID                      : 250942251605650479822128556875395925976 (0xBCC9B83C2845F4DC847E8046E5E087D8)
    Complete name                  : [HRS] Kosuke-sama und Rikimaru-sama - Der Drache der Konpei-Insel.mkv
    Format                         : Matroska
    Format version                 : Version 4 / Version 2
    File size                      : 664 MiB
    Duration                       : 47mn 17s
    Overall bit rate mode          : Variable
    Overall bit rate               : 1 963 Kbps
    Encoded date                   : UTC 2016-04-01 14:00:33
    Writing application            : mkvmerge v7.7.0 ('Six Voices') 64bit built on Feb 28 2015 23:39:33
    Writing library                : libebml v1.3.1 + libmatroska v1.4.2
    Attachements                   : calibrib.ttf / tahoma.ttf / arial.ttf / arialbd.ttf
    _STATISTICS_WRITING_APP        : mkvmerge v7.7.0 ('Six Voices') 64bit built on Feb 28 2015 23:39:33
    _STATISTICS_WRITING_DATE_UTC   : 2016-04-01 14:00:33
    _STATISTICS_TAGS               : BPS DURATION NUMBER_OF_FRAMES NUMBER_OF_BYTES
    DURATION                       : 00:46:41.890000000
    NUMBER_OF_FRAMES               : 458
    NUMBER_OF_BYTES                : 27913
    
    Video
    ID                             : 1
    Format                         : AVC
    Format/Info                    : Advanced Video Codec
    Format profile                 : [email protected]
    Format settings, CABAC         : Yes
    Format settings, ReFrames      : 4 frames
    Codec ID                       : V_MPEG4/ISO/AVC
    Duration                       : 47mn 17s
    Bit rate                       : 1 843 Kbps
    Width                          : 720 pixels
    Height                         : 480 pixels
    Display aspect ratio           : 4:3
    Original display aspect ratio  : 3:2
    Frame rate mode                : Constant
    Frame rate                     : 23.976 fps
    Color space                    : YUV
    Chroma subsampling             : 4:2:0
    Bit depth                      : 8 bits
    Scan type                      : Progressive
    Bits/(Pixel*Frame)             : 0.222
    Stream size                    : 608 MiB (91%)
    Title                          : Japanese
    Writing library                : x264 core 56 svn-667C
    Encoding settings              : cabac=1 / ref=1 / deblock=1:0:0 / analyse=0x3:0x133 / me=hex / subme=6 / brdo=1 / mixed_ref=0 / me_range=16 / chroma_me=1 / trellis=1 / 8x8dct=1 / cqm=0 / deadzone=21,11 / chroma_qp_offset=0 / threads=1 / nr=0 / decimate=1 / mbaff=0 / bframes=3 / b_pyramid=1 / b_adapt=1 / b_bias=0 / direct=1 / wpredb=1 / bime=1 / keyint=250 / keyint_min=25 / scenecut=40 / rc=2pass / bitrate=1843 / ratetol=1.0 / rceq='blurCplx^(1-qComp)' / qcomp=0.60 / qpmin=10 / qpmax=51 / qpstep=4 / cplxblur=20.0 / qblur=0.5 / ip_ratio=1.40 / pb_ratio=1.45
    Language                       : Japanese
    Default                        : Yes
    Forced                         : No
    
    Audio
    ID                             : 2
    Format                         : Vorbis
    Format settings, Floor         : 1
    Codec ID                       : A_VORBIS
    Duration                       : 47mn 17s
    Bit rate mode                  : Variable
    Bit rate                       : 128 Kbps
    Channel(s)                     : 2 channels
    Sampling rate                  : 48.0 KHz
    Compression mode               : Lossy
    Delay relative to video        : -108ms
    Stream size                    : 43.3 MiB (7%)
    Title                          : Japanese
    Writing application            : Made with BeSweet v1.5b31
    Writing library                : libVorbis 1.0 (UTC 2002-07-17)
    Language                       : Japanese
    Default                        : Yes
    Forced                         : No
    Encoded_Application/Url        : http://DSPguru.doom9.org
    
    Text
    ID                             : 3
    Format                         : ASS
    Codec ID                       : S_TEXT/ASS
    Codec ID/Info                  : Advanced Sub Station Alpha
    Compression mode               : Lossless
    Language                       : German
    Default                        : Yes
    Forced                         : Yes


    OVA 01 / 01 online


    || Download & Passwort ||


    Geschützter Bereich - Bedanke dich beim Poster, um den Bereich sehen zu können
    Hier erfährst Du wie Du Dich bedanken kannst oder werde jetzt Premium Mitglied ab einer Spende von 5€ und erhalte sofortigen Zugriff auf den Downloadbereich!

    Geändert von galudo (12. October 2016 um 18:30 Uhr)
    SUPPORT UND REUP ANFRAGEN NUR >> [Links sind nur für registrierte und aktivierte Nutzer sichtbar. Klicke hier um dich zu registrieren.] <<
    Bitte IMMER den Thread-Link mitschicken.

  2. 2 Benutzer sagen Danke:

    Antipott (9. April 2016),Kyuubi90 (6. April 2016)

Lesezeichen

Berechtigungen

  • Neue Themen erstellen: Nein
  • Themen beantworten: Nein
  • Anhänge hochladen: Nein
  • Beiträge bearbeiten: Nein
  •  

1 2 3 4 5 6 7 8 9 10 11 12 13 14 15 16 17 18 19 20 21 22 23 24 25 26 27 28 29 30 31 32 33 34 35 36 37 38 39 40 41 42 43 44 45 46 47 48 49 50 51 52 53 54 55 56 57 58 59 60 61 62 63 64 65 66 67 68 69 70 71 72 73 74 75 76 77 78 79 80 81 82 83 84 85 86 87 88 89 90 91 92 93 94 95 96 97 98 99 100 101 102 103 104 105 106 107 108 109 110 111 112 113 114 115 116 117 118 119 120 121 122 123 124 125 126 127 128 129 130 131 132 133 134 135 136 137 138 139 140 141 142 143 144 145 146 147 148 149 150 151 152 153 154 155 156 157 158