Ergebnis 1 bis 6 von 6

Thema: Koufuku Graffiti [Jap-Dub][Ger-Sub][720p][WEBRip]

Dieser Thread wurde noch nicht bewertet. Bewerte ihn doch, wenn er dir gefällt!
  1. #1
    Uploader Avatar von Filbo11
    Registriert seit
    Jan 2015
    Beiträge
    929
    Punkte
    17.234
    Errungenschaften:
    TomodachisErste Gruppe1 Jahr registriertCreated Album picturesTagger First Class

    Koufuku Graffiti [Jap-Dub][Ger-Sub][720p][WEBRip]




    Handlung

    Da ihre Eltern in Übersee arbeiten und ihre Großmutter ein Jahr zuvor gestorben ist, lebt die Mittelschulschülerin Ryou inzwischen alleine und nur ihre Tante schaut ab und zu einmal vorbei. Obwohl sie eine Begabung fürs Kochen hat, schmeckt ihr in letzter Zeit ihr eigenes Essen nicht mehr, denn sie hat nun niemanden mehr, mit dem sie es teilen kann. Das ändert sich als Kirin, eine gleichaltrige entfernte Verwandte, damit beginnt sich jedes Wochenende bei ihr einzuquartieren, um die Nachhilfeschule zu besuchen. Gemeinsam geben sie sich nun den lukullischen Genüssen hin, die bei Ryou geradezu ekstatische Freude auslösen können, und finden mit der Zeit noch weitere Freunde.


    Format: mp4
    Genre: Komödie
    Dauer: ca. 24 min (pro EP)
    Größe: ca. 200 MB
    Sprache: Japanisch
    Untertitel: Deutsch
    Group: Pure-Ani.me
    Hoster: Uploaded.net & Share-Online.biz
    kein PW


    Screenshots & Info

    Spoiler
    [Links sind nur für registrierte und aktivierte Nutzer sichtbar. Klicke hier um dich zu registrieren.]

    Code:
    General
    
    Format                      : MPEG-4
    Format profile              : Base Media
    Codec ID                    : isom
    File size                   : 217 MiB
    Duration                    : 24mn 10s
    Overall bit rate mode       : Variable
    Overall bit rate            : 1 252 Kbps
    Encoded date                : UTC 2015-01-17 19:41:12
    Tagged date                 : UTC 2015-01-17 19:41:12
    
    Video
    ID                          : 1
    Format                      : AVC
    Format/Info                 : Advanced Video Codec
    Format profile              : [email protected]
    Format settings, CABAC      : Yes
    Format settings, ReFrames   : 4 frames
    Codec ID                    : avc1
    Codec ID/Info               : Advanced Video Coding
    Duration                    : 24mn 10s
    Bit rate                    : 1 103 Kbps
    Maximum bit rate            : 9 846 Kbps
    Width                       : 1 280 pixels
    Height                      : 720 pixels
    Display aspect ratio        : 16:9
    Frame rate mode             : Constant
    Frame rate                  : 23.976 fps
    Color space                 : YUV
    Chroma subsampling          : 4:2:0
    Bit depth                   : 8 bits
    Scan type                   : Progressive
    Bits/(Pixel*Frame)          : 0.050
    Stream size                 : 191 MiB (88%)
    Writing library             : x264 core 125 r2200 999b753
    Encoding settings           : cabac=1 / ref=3 / deblock=1:0:0 / analyse=0x3:0x113 / me=hex / subme=7 / psy=1 / psy_rd=1.00:0.00 / mixed_ref=1 / me_range=16 / chroma_me=1 / trellis=1 / 8x8dct=1 / cqm=0 / deadzone=21,11 / fast_pskip=1 / chroma_qp_offset=-2 / threads=12 / lookahead_threads=2 / sliced_threads=0 / nr=0 / decimate=1 / interlaced=0 / bluray_compat=0 / constrained_intra=0 / bframes=3 / b_pyramid=2 / b_adapt=1 / b_bias=0 / direct=1 / weightb=1 / open_gop=0 / weightp=2 / keyint=240 / keyint_min=23 / scenecut=40 / intra_refresh=0 / rc_lookahead=40 / rc=2pass / mbtree=1 / bitrate=1103 / ratetol=1.0 / qcomp=0.60 / qpmin=0 / qpmax=69 / qpstep=4 / cplxblur=20.0 / qblur=0.5 / ip_ratio=1.40 / aq=1:1.00
    Encoded date                : UTC 2015-01-17 19:41:12
    Tagged date                 : UTC 2015-01-17 19:41:14
    
    Audio
    ID                          : 2
    Format                      : AAC
    Format/Info                 : Advanced Audio Codec
    Format profile              : LC
    Codec ID                    : 40
    Duration                    : 24mn 10s
    Bit rate mode               : Variable
    Bit rate                    : 144 Kbps
    Maximum bit rate            : 195 Kbps
    Channel(s)                  : 2 channels
    Channel positions           : Front: L R
    Sampling rate               : 44.1 KHz
    Compression mode            : Lossy
    Stream size                 : 25.0 MiB (12%)
    Encoded date                : UTC 2015-01-17 19:41:14
    Tagged date                 : UTC 2015-01-17 19:41:14


    Alle Mirrors untereinander kompatibel
    Folgen einzeln ladbar
    Folge 12/12 online


    Download
    Geschützter Bereich - Bedanke dich beim Poster, um den Bereich sehen zu können
    Hier erfährst Du wie Du Dich bedanken kannst oder werde jetzt Premium Mitglied ab einer Spende von 5€ und erhalte sofortigen Zugriff auf den Downloadbereich!


    Geändert von Filbo11 (12. April 2016 um 10:21 Uhr) Grund: folge 12 online

    [Links sind nur für registrierte und aktivierte Nutzer sichtbar. Klicke hier um dich zu registrieren.]

    Ich wäre allen sehr dankbar, die mir gravierende Fehler in meinen Releases per PN melden

  2. 33 Benutzer sagen Danke:

    Aluaran (4. March 2015),ansyeiraso (4. April 2015),atilla (17. May 2015),Bloodywaffe (23. November 2015),bohne (7. October 2015),Chrissi89 (14. April 2015),Chrystals_Tear89 (20. June 2015),Doktorwayne (14. December 2015),Drachengott (26. March 2015),hadis1000 (16. October 2015),IamOezz_inactive (20. March 2015),Infi (1. April 2015),Juckz (13. November 2015),Kokujou (17. March 2015),Kosuda-kun (23. July 2016),manuel4193 (25. March 2015),midnighter (27. February 2015),Miles360 (14. March 2015),Nanatzusaya (1. April 2015),Pappkamerad (2. April 2015),Physignatily (24. March 2016),SagBitte (2. December 2016),Scorns (13. January 2016),Sepsis (26. December 2015),SnowCat (27. February 2015),ssj3shad (13. March 2015),Stoneman (27. February 2015),StrikeAngel13 (12. June 2015),Tekk (4. March 2015),toter Fisch (7. July 2015),Tsu (16. May 2015),Valetinese (28. February 2015),Yaranaika (23. August 2015)

  3. #2
    Uploader Avatar von Filbo11
    Registriert seit
    Jan 2015
    Beiträge
    929
    Punkte
    17.234
    Errungenschaften:
    TomodachisErste Gruppe1 Jahr registriertCreated Album picturesTagger First Class

    AW: Koufuku Graffiti [8/12][Jap-Dub][Ger-Sub][720p][WEBRip]

    folge 8 online

    [Links sind nur für registrierte und aktivierte Nutzer sichtbar. Klicke hier um dich zu registrieren.]

    Ich wäre allen sehr dankbar, die mir gravierende Fehler in meinen Releases per PN melden

  4. 1 Benutzer sagt Danke:

    SnowCat (10. March 2015)

  5. #3
    Uploader Avatar von Filbo11
    Registriert seit
    Jan 2015
    Beiträge
    929
    Punkte
    17.234
    Errungenschaften:
    TomodachisErste Gruppe1 Jahr registriertCreated Album picturesTagger First Class

    AW: Koufuku Graffiti [9/12][Jap-Dub][Ger-Sub][720p][WEBRip]

    folge 9 online

    [Links sind nur für registrierte und aktivierte Nutzer sichtbar. Klicke hier um dich zu registrieren.]

    Ich wäre allen sehr dankbar, die mir gravierende Fehler in meinen Releases per PN melden

  6. 1 Benutzer sagt Danke:

    SnowCat (17. March 2015)

  7. #4
    Uploader Avatar von Filbo11
    Registriert seit
    Jan 2015
    Beiträge
    929
    Punkte
    17.234
    Errungenschaften:
    TomodachisErste Gruppe1 Jahr registriertCreated Album picturesTagger First Class

    AW: Koufuku Graffiti [Jap-Dub][Ger-Sub][720p][WEBRip]

    folge 10 online

    [Links sind nur für registrierte und aktivierte Nutzer sichtbar. Klicke hier um dich zu registrieren.]

    Ich wäre allen sehr dankbar, die mir gravierende Fehler in meinen Releases per PN melden

  8. 1 Benutzer sagt Danke:

    SnowCat (17. March 2015)

  9. #5
    Uploader Avatar von Filbo11
    Registriert seit
    Jan 2015
    Beiträge
    929
    Punkte
    17.234
    Errungenschaften:
    TomodachisErste Gruppe1 Jahr registriertCreated Album picturesTagger First Class

    AW: Koufuku Graffiti [Jap-Dub][Ger-Sub][720p][WEBRip]

    folge 11 online

    [Links sind nur für registrierte und aktivierte Nutzer sichtbar. Klicke hier um dich zu registrieren.]

    Ich wäre allen sehr dankbar, die mir gravierende Fehler in meinen Releases per PN melden

  10. 1 Benutzer sagt Danke:

    SnowCat (13. April 2015)

  11. #6
    Uploader Avatar von Filbo11
    Registriert seit
    Jan 2015
    Beiträge
    929
    Punkte
    17.234
    Errungenschaften:
    TomodachisErste Gruppe1 Jahr registriertCreated Album picturesTagger First Class

    AW: Koufuku Graffiti [Jap-Dub][Ger-Sub][720p][WEBRip]

    folge 12 online und somit komplett

    [Links sind nur für registrierte und aktivierte Nutzer sichtbar. Klicke hier um dich zu registrieren.]

    Ich wäre allen sehr dankbar, die mir gravierende Fehler in meinen Releases per PN melden

  12. 1 Benutzer sagt Danke:

    SnowCat (13. April 2015)

Stichworte

Lesezeichen

Berechtigungen

  • Neue Themen erstellen: Nein
  • Themen beantworten: Nein
  • Anhänge hochladen: Nein
  • Beiträge bearbeiten: Nein
  •  

1 2 3 4 5 6 7 8 9 10 11 12 13 14 15 16 17 18 19 20 21 22 23 24 25 26 27 28 29 30 31 32 33 34 35 36 37 38 39 40 41 42 43 44 45 46 47 48 49 50 51 52 53 54 55 56 57 58 59 60 61 62 63 64 65 66 67 68 69 70 71 72 73 74 75 76 77 78 79 80 81 82 83 84 85 86 87 88 89 90 91 92 93 94 95 96 97 98 99 100 101 102 103 104 105 106 107 108 109 110 111 112 113 114 115 116 117 118 119 120 121 122 123 124 125 126 127 128 129 130 131 132 133 134 135 136 137 138 139 140 141 142 143 144 145 146 147 148 149 150 151 152 153 154 155 156 157 158