Ergebnis 1 bis 1 von 1

Thema: Koukaku no Regios Jap-Dub Ger-Sub AAC 2009 DVDRip x264 - Cookie-Subs

Dieser Thread wurde noch nicht bewertet. Bewerte ihn doch, wenn er dir gefällt!
  1. #1
    High Quality Anime Avatar von Uploading123
    Registriert seit
    Mar 2013
    Beiträge
    1.009
    Punkte
    44.135
    Errungenschaften:
    TomodachisTagger Amateur25000 ErfahrungspunkteHikikomoriKapitän

    Koukaku no Regios Jap-Dub Ger-Sub AAC 2009 DVDRip x264 - Cookie-Subs


    Koukaku no Regios German Subbed AAC 2009 DVDRip x264 - Cookie-Subs




    In ferner Zukunft haben durch die Verschmutzung kontaminierte Kreaturen die Herrschaft über die Erde übernommen und die Menschheit dazu gezwungen, in abgeschlossenen mobilen Städten namens Regios zu leben. Eine dieser Städte wird Czerni genannt und ist eine autark agierende Schule, auf der Lei-fon Alseif gerade seine Ausbildung begonnen hat. Widerwillig schließt er sich der 17. Martial Arts Studieneinheit an, die von Nina Antoc, einer Schülerin aus dem dritten Jahrgang, geleitet wird und der auch Feri Roth, Schülerin aus dem zweiten Jahrgang, angehört.


    Größe: 5.37 GB // ca. 230 MB pro Folge
    Laufzeit: ca. 25 Minuten pro Folge
    Auflösung: 704x396
    Bittiefe: 8-Bit
    Audio: AAC
    Format: mp4
    Codec: x264
    Sprache: Japanisch
    Untertitel: Deutsch
    Release Group: Cookie-Subs
    Episodenanzahl: 24/24

    Mediainfo
    Spoiler

    General
    Complete name : [C-Subs]Chrome Shelled Regios 01 [h264 AAC 396p][50150FB7].mp4
    Format : MPEG-4
    Format profile : Base Media
    Codec ID : isom
    File size : 230 MiB
    Duration : 25mn 7s
    Overall bit rate mode : Variable
    Overall bit rate : 1 280 Kbps
    Encoded date : UTC 2009-08-05 07:51:42
    Tagged date : UTC 2009-08-05 07:51:42

    Video
    ID : 1
    Format : AVC
    Format/Info : Advanced Video Codec
    Format profile : [email protected]
    Format settings, CABAC : Yes
    Format settings, ReFrames : 4 frames
    Codec ID : avc1
    Codec ID/Info : Advanced Video Coding
    Duration : 25mn 7s
    Bit rate : 1 111 Kbps
    Maximum bit rate : 3 184 Kbps
    Width : 704 pixels
    Height : 396 pixels
    Display aspect ratio : 16:9
    Frame rate mode : Constant
    Frame rate : 23.976 fps
    Color space : YUV
    Chroma subsampling : 4:2:0
    Bit depth : 8 bits
    Scan type : Progressive
    Bits/(Pixel*Frame) : 0.166
    Stream size : 200 MiB (87%)
    Writing library : x264 core 68 r1183M f21daff
    Encoding settings : cabac=1 / ref=4 / deblock=1:1:1 / analyse=0x3:0x113 / me=hex / subme=5 / psy_rd=0.0:0.0 / mixed_ref=1 / me_range=16 / chroma_me=1 / trellis=0 / 8x8dct=1 / cqm=0 / deadzone=21,11 / chroma_qp_offset=0 / threads=3 / nr=0 / decimate=1 / mbaff=0 / bframes=3 / b_pyramid=0 / b_adapt=1 / b_bias=0 / direct=3 / wpredb=0 / keyint=250 / keyint_min=25 / scenecut=40 / rc=2pass / bitrate=1111 / ratetol=1.0 / qcomp=0.60 / qpmin=10 / qpmax=51 / qpstep=4 / cplxblur=20.0 / qblur=0.5 / vbv_maxrate=50000 / vbv_bufsize=50000 / ip_ratio=1.40 / pb_ratio=1.30 / aq=0
    Encoded date : UTC 2009-08-05 07:22:37
    Tagged date : UTC 2009-08-05 07:51:52

    Audio
    ID : 2
    Format : AAC
    Format/Info : Advanced Audio Codec
    Format profile : LC
    Codec ID : 40
    Duration : 25mn 7s
    Bit rate mode : Variable
    Bit rate : 165 Kbps
    Maximum bit rate : 243 Kbps
    Channel(s) : 2 channels
    Channel positions : Front: L R
    Sampling rate : 48.0 KHz
    Compression mode : Lossy
    Stream size : 29.7 MiB (13%)
    Encoded date : UTC 2009-08-05 07:51:50
    Tagged date : UTC 2009-08-05 07:51:52

    Geschützter Bereich - Bedanke dich beim Poster, um den Bereich sehen zu können
    Hier erfährst Du wie Du Dich bedanken kannst oder werde jetzt Premium Mitglied ab einer Spende von 5€ und erhalte sofortigen Zugriff auf den Downloadbereich!

    Ihr seht nur Oboom als Mirror, obwohl Uploaded bzw. Share-Online angegeben ist?
    [Links sind nur für registrierte und aktivierte Nutzer sichtbar. Klicke hier um dich zu registrieren.]

  2. 43 Benutzer sagen Danke:

    Amedala (27. June 2014),Antipott (30. September 2014),B3nnoX (13. April 2014),Bizzy76 (7. August 2014),Black Lotus (20. April 2014),BlackDragon333 (23. November 2014),Bloodywaffe (23. October 2015),Cande (30. September 2015),Conopas (5. October 2014),data_ghoul (3. December 2015),Etzlo (28. March 2016),Flint (13. April 2014),Ikari-sama (29. May 2016),Infi (29. May 2014),janik2009 (22. November 2016),kadaj93 (29. June 2014),Kazujatachi (4. May 2014),Makenshi (27. September 2015),Max13493 (10. August 2014),McZeRo (20. September 2015),Megamani (14. May 2015),midnighter (9. October 2014),Nanatzusaya (12. March 2016),Neyzu (30. March 2015),Piwi (14. April 2014),prinzvegeta (29. November 2015),queltahaty (23. April 2014),Radesys (14. February 2016),samuuil (29. April 2016),SerienStream (28. July 2014),SnowCat (12. April 2014),Tabuadelo (30. November 2015),Tidus18 (4. March 2016),Toad (9. May 2015),Tschu23 (29. October 2015),Valious (10. January 2016),Vaurieus (28. July 2014),Wölfchen (1. May 2015),xGranmeh (5. July 2015),YamiXGhost (25. January 2016),Zaisen (17. April 2014),zockerfreund (20. April 2016)

Lesezeichen

Berechtigungen

  • Neue Themen erstellen: Nein
  • Themen beantworten: Nein
  • Anhänge hochladen: Nein
  • Beiträge bearbeiten: Nein
  •  

1 2 3 4 5 6 7 8 9 10 11 12 13 14 15 16 17 18 19 20 21 22 23 24 25 26 27 28 29 30 31 32 33 34 35 36 37 38 39 40 41 42 43 44 45 46 47 48 49 50 51 52 53 54 55 56 57 58 59 60 61 62 63 64 65 66 67 68 69 70 71 72 73 74 75 76 77 78 79 80 81 82 83 84 85 86 87 88 89 90 91 92 93 94 95 96 97 98 99 100 101 102 103 104 105 106 107 108 109 110 111 112 113 114 115 116 117 118 119 120 121 122 123 124 125 126 127 128 129 130 131 132 133 134 135 136 137 138 139 140 141 142 143 144 145 146 147 148 149 150 151 152 153 154 155 156 157 158