Ergebnis 1 bis 1 von 1

Thema: Kowabon [Jap-Dub][Ger-Sub][720p][HDTV] - Saru

Dieser Thread wurde noch nicht bewertet. Bewerte ihn doch, wenn er dir gefällt!
  1. #1
    Kami-sama Avatar von galudo
    Registriert seit
    Mar 2015
    Beiträge
    1.371
    Punkte
    25.989
    Errungenschaften:
    TomodachisTagger ProfiHyperaktivSenpaiGang Leader

    Kowabon [Jap-Dub][Ger-Sub][720p][HDTV] - Saru

    Kowabon
    こわぼん



    Kurzbeschreibung
    Kameras gibt es mittlerweile fast überall auf der Welt. Wir installieren sie an öffentlichen Plätzen, um Sicherheit zu gewähren oder nutzen sie, um einfach nur unsere privatesten und glücklichsten Momente festzuhalten. Sie gehören beinahe schon zu unserem alltäglichen Leben. Doch diese "Augen", die uns auf Schritt und Tritt begleiten, haben eine Welt gesehen, von der du nichts ahnst...
    Format: MP4
    Sprache: Japanisch
    Untertitel: Deutsch
    Genre: Horror
    Größe: ~ 35-190 MB pro Folge | Gesamtgröße: 1,14 GB
    Dauer: ~ 3 Minuten
    Jahr: 2015-2016
    Video: 720p
    Source: HDTV
    Subgroup / Releasegroup: Saru-Subs

    Hoster: Share-Online | Uploaded
    Passwort: siehe unten


    Datei-Info
    Spoiler
    Code:
    General
    Complete name                  : Kowabon - 01.mp4
    Format                         : MPEG-4
    Format profile                 : Base Media / Version 2
    Codec ID                       : mp42
    File size                      : 46.5 MiB
    Duration                       : 2mn 59s
    Overall bit rate mode          : Variable
    Overall bit rate               : 2 173 Kbps
    Encoded date                   : UTC 2015-10-06 18:22:47
    Tagged date                    : UTC 2015-10-06 18:31:13
    Writing application            : HandBrake 0.9.9 2013052900
    
    Video
    ID                             : 1
    Format                         : AVC
    Format/Info                    : Advanced Video Codec
    Format profile                 : [email protected]
    Format settings, CABAC         : Yes
    Format settings, ReFrames      : 16 frames
    Codec ID                       : avc1
    Codec ID/Info                  : Advanced Video Coding
    Duration                       : 2mn 59s
    Bit rate                       : 1 922 Kbps
    Width                          : 1 280 pixels
    Height                         : 720 pixels
    Display aspect ratio           : 16:9
    Frame rate mode                : Variable
    Frame rate                     : 23.976 fps
    Minimum frame rate             : 23.810 fps
    Maximum frame rate             : 1 000.000 fps
    Color space                    : YUV
    Chroma subsampling             : 4:2:0
    Bit depth                      : 8 bits
    Scan type                      : Progressive
    Bits/(Pixel*Frame)             : 0.087
    Stream size                    : 41.1 MiB (88%)
    Writing library                : x264 core 130 r2273 b3065e6
    Encoding settings              : cabac=1 / ref=16 / deblock=1:1:1 / analyse=0x3:0x133 / me=umh / subme=10 / psy=1 / psy_rd=0.40:0.00 / mixed_ref=1 / me_range=24 / chroma_me=1 / trellis=2 / 8x8dct=1 / cqm=0 / deadzone=21,11 / fast_pskip=1 / chroma_qp_offset=-2 / threads=12 / lookahead_threads=3 / sliced_threads=0 / nr=0 / decimate=1 / interlaced=0 / bluray_compat=0 / constrained_intra=0 / bframes=10 / b_pyramid=2 / b_adapt=2 / b_bias=0 / direct=3 / weightb=1 / open_gop=0 / weightp=2 / keyint=240 / keyint_min=24 / scenecut=40 / intra_refresh=0 / rc_lookahead=60 / rc=crf / mbtree=1 / crf=17.0 / qcomp=0.60 / qpmin=0 / qpmax=69 / qpstep=4 / ip_ratio=1.40 / aq=1:0.60
    Encoded date                   : UTC 2015-10-06 18:22:47
    Tagged date                    : UTC 2015-10-06 18:31:12
    Color range                    : Limited
    Color primaries                : BT.709
    Transfer characteristics       : BT.709
    Matrix coefficients            : BT.709
    
    Audio
    ID                             : 2
    Format                         : AAC
    Format/Info                    : Advanced Audio Codec
    Format profile                 : LC
    Codec ID                       : 40
    Duration                       : 2mn 59s
    Bit rate mode                  : Variable
    Bit rate                       : 245 Kbps
    Maximum bit rate               : 385 Kbps
    Channel(s)                     : 2 channels
    Channel positions              : Front: L R
    Sampling rate                  : 48.0 KHz
    Compression mode               : Lossy
    Stream size                    : 5.25 MiB (11%)
    Title                          : Stereo
    Language                       : Japanese
    Encoded date                   : UTC 2015-10-06 18:22:47
    Tagged date                    : UTC 2015-10-06 18:31:11


    Folgen 13 / 13 online
    Folgen einzeln ladbar



    || Download & Passwort ||


    Geschützter Bereich - Bedanke dich beim Poster, um den Bereich sehen zu können
    Hier erfährst Du wie Du Dich bedanken kannst oder werde jetzt Premium Mitglied ab einer Spende von 5€ und erhalte sofortigen Zugriff auf den Downloadbereich!

    Geändert von galudo (12. October 2016 um 18:38 Uhr)
    SUPPORT UND REUP ANFRAGEN NUR >> [Links sind nur für registrierte und aktivierte Nutzer sichtbar. Klicke hier um dich zu registrieren.] <<
    Bitte IMMER den Thread-Link mitschicken.

  2. 2 Benutzer sagen Danke:

    Antipott (25. March 2016),Frag0042 (17. March 2016)

Stichworte

Lesezeichen

Berechtigungen

  • Neue Themen erstellen: Nein
  • Themen beantworten: Nein
  • Anhänge hochladen: Nein
  • Beiträge bearbeiten: Nein
  •  

1 2 3 4 5 6 7 8 9 10 11 12 13 14 15 16 17 18 19 20 21 22 23 24 25 26 27 28 29 30 31 32 33 34 35 36 37 38 39 40 41 42 43 44 45 46 47 48 49 50 51 52 53 54 55 56 57 58 59 60 61 62 63 64 65 66 67 68 69 70 71 72 73 74 75 76 77 78 79 80 81 82 83 84 85 86 87 88 89 90 91 92 93 94 95 96 97 98 99 100 101 102 103 104 105 106 107 108 109 110 111 112 113 114 115 116 117 118 119 120 121 122 123 124 125 126 127 128 129 130 131 132 133 134 135 136 137 138 139 140 141 142 143 144 145 146 147 148 149 150 151 152 153 154 155 156 157 158