Ergebnis 1 bis 3 von 3

Thema: Koyomimonogatari [Laufend][Jap-Dub][Ger-Sub][540p][Webrip] - Pure-Anime

Dieser Thread wurde noch nicht bewertet. Bewerte ihn doch, wenn er dir gefällt!
  1. #1
    Erfahrener Otaku Avatar von DjRayleigh
    Registriert seit
    Jul 2015
    Beiträge
    195
    Punkte
    2.962
    Errungenschaften:
    1000 ErfahrungspunkteHyperaktivErste GruppeTomodachisSenpai

    Koyomimonogatari [Laufend][Jap-Dub][Ger-Sub][540p][Webrip] - Pure-Anime


    暦物語
    Koyomimonogatari






    Kurzbeschreibung:
    Zitat Zitat von AniSearch.com
    Every month starting from April, one of the heroines of the Monogatari Series encounters some kind of mystery in their life and Koyomi solves them all.
    Jeden Monat stößt vom April Angefangen den Heldinnen der Monogatari Reihe auf eine Art Mysterium in ihrem Leben, und Koyomi löst sie alle. *by DJ*


    Spieldauer: 14min
    Genre: Drama
    Nebengenres: Drama, Geistergeschichten, Komödie, Mystery
    Jahr: 2016
    Sprache: Japanisch
    Untertitel: Deutsch
    Größe pro Folge: ~124 MiB
    Episodenanzahl: 7/?
    Format: MP4
    Auflösung: 540p (16:9)
    Videocodec: x264 (AVC)
    Audiocodec: AAC
    Releasegruppe: Pure-Anime
    Hoster: Uploaded, Share-Online


    MediaInfo
    Code:
    
    Format                                   : MPEG-4
    Format profile                           : Base Media
    Codec ID                                 : isom
    File size                                : 124 MiB
    Duration                                 : 13mn 48s
    Overall bit rate mode                    : Variable
    Overall bit rate                         : 1 252 Kbps
    Encoded date                             : UTC 2016-03-14 18:40:30
    Tagged date                              : UTC 2016-03-14 18:40:30
    
    Video
    ID                                       : 1
    Format                                   : AVC
    Format/Info                              : Advanced Video Codec
    Format profile                           : [email protected]
    Format settings, CABAC                   : Yes
    Format settings, ReFrames                : 4 frames
    Codec ID                                 : avc1
    Codec ID/Info                            : Advanced Video Coding
    Duration                                 : 13mn 48s
    Bit rate                                 : 1 100 Kbps
    Maximum bit rate                         : 9 960 Kbps
    Width                                    : 960 pixels
    Height                                   : 540 pixels
    Display aspect ratio                     : 16:9
    Frame rate mode                          : Constant
    Frame rate                               : 23.976 fps
    Color space                              : YUV
    Chroma subsampling                       : 4:2:0
    Bit depth                                : 8 bits
    Scan type                                : Progressive
    Bits/(Pixel*Frame)                       : 0.089
    Stream size                              : 109 MiB (88%)
    Writing library                          : x264 core 148 r2638 7599210
    Encoding settings                        : cabac=1 / ref=3 / deblock=1:0:0 / analyse=0x3:0x113 / me=hex / subme=7 / psy=1 / psy_rd=1.00:0.00 / mixed_ref=1 / me_range=16 / chroma_me=1 / trellis=1 / 8x8dct=1 / cqm=0 / deadzone=21,11 / fast_pskip=1 / chroma_qp_offset=-2 / threads=12 / lookahead_threads=2 / sliced_threads=0 / nr=0 / decimate=1 / interlaced=0 / bluray_compat=0 / constrained_intra=0 / bframes=3 / b_pyramid=2 / b_adapt=1 / b_bias=0 / direct=1 / weightb=1 / open_gop=0 / weightp=2 / keyint=240 / keyint_min=23 / scenecut=40 / intra_refresh=0 / rc_lookahead=40 / rc=2pass / mbtree=1 / bitrate=1100 / ratetol=1.0 / qcomp=0.60 / qpmin=0 / qpmax=69 / qpstep=4 / cplxblur=20.0 / qblur=0.5 / ip_ratio=1.40 / aq=1:1.00
    Encoded date                             : UTC 2016-03-14 18:40:30
    Tagged date                              : UTC 2016-03-14 18:40:31
    
    Audio
    ID                                       : 2
    Format                                   : AAC
    Format/Info                              : Advanced Audio Codec
    Format profile                           : LC
    Codec ID                                 : 40
    Duration                                 : 13mn 48s
    Bit rate mode                            : Variable
    Bit rate                                 : 148 Kbps
    Maximum bit rate                         : 191 Kbps
    Channel(s)                               : 2 channels
    Channel positions                        : Front: L R
    Sampling rate                            : 44.1 KHz
    Compression mode                         : Lossy
    Stream size                              : 14.6 MiB (12%)
    Encoded date                             : UTC 2016-03-14 18:34:48
    Tagged date                              : UTC 2016-03-14 18:40:31
    
    





    Geschützter Bereich - Bedanke dich beim Poster, um den Bereich sehen zu können
    Hier erfährst Du wie Du Dich bedanken kannst oder werde jetzt Premium Mitglied ab einer Spende von 5€ und erhalte sofortigen Zugriff auf den Downloadbereich!


    [Links sind nur für registrierte und aktivierte Nutzer sichtbar. Klicke hier um dich zu registrieren.]
    Geändert von DjRayleigh (30. April 2016 um 02:20 Uhr) Grund: Edit Folge 7

    [Links sind nur für registrierte und aktivierte Nutzer sichtbar. Klicke hier um dich zu registrieren.]
    Support über PN
    =
    AKTIV

  2. 16 Benutzer sagen Danke:

    Asuka Langley (25. April 2016),Bloodyair (24. April 2016),Bullet91 (5. May 2016),chopper23 (30. April 2016),Conopas (6. May 2016),Evilsensei (15. March 2016),Greg (7. October 2016),Hedeki (11. April 2016),kashmael (29. October 2016),manninator (9. October 2016),ManunaM (2. December 2016),Marcii-16 (26. March 2016),Sporrdig (23. May 2016),Sylux (1. June 2016),Terrorhasii.x3 (6. July 2016),Valetinese (15. March 2016)

  3. #2
    Erfahrener Otaku Avatar von DjRayleigh
    Registriert seit
    Jul 2015
    Beiträge
    195
    Punkte
    2.962
    Errungenschaften:
    1000 ErfahrungspunkteHyperaktivErste GruppeTomodachisSenpai

    AW: Koyomimonogatari [Laufend][Jap-Dub][Ger-Sub][540p][Webrip] - Pure-Anime

    Update : Folge 2-5 nun Online (:

    [Links sind nur für registrierte und aktivierte Nutzer sichtbar. Klicke hier um dich zu registrieren.]
    Support über PN
    =
    AKTIV

  4. 1 Benutzer sagt Danke:

    Asuka Langley (2. May 2016)

  5. #3
    Erfahrener Otaku Avatar von DjRayleigh
    Registriert seit
    Jul 2015
    Beiträge
    195
    Punkte
    2.962
    Errungenschaften:
    1000 ErfahrungspunkteHyperaktivErste GruppeTomodachisSenpai

    AW: Koyomimonogatari [Laufend][Jap-Dub][Ger-Sub][540p][Webrip] - Pure-Anime

    Update : Folge 6-7

    [Links sind nur für registrierte und aktivierte Nutzer sichtbar. Klicke hier um dich zu registrieren.]
    Support über PN
    =
    AKTIV

  6. 1 Benutzer sagt Danke:

    Asuka Langley (2. May 2016)

Lesezeichen

Berechtigungen

  • Neue Themen erstellen: Nein
  • Themen beantworten: Nein
  • Anhänge hochladen: Nein
  • Beiträge bearbeiten: Nein
  •  

1 2 3 4 5 6 7 8 9 10 11 12 13 14 15 16 17 18 19 20 21 22 23 24 25 26 27 28 29 30 31 32 33 34 35 36 37 38 39 40 41 42 43 44 45 46 47 48 49 50 51 52 53 54 55 56 57 58 59 60 61 62 63 64 65 66 67 68 69 70 71 72 73 74 75 76 77 78 79 80 81 82 83 84 85 86 87 88 89 90 91 92 93 94 95 96 97 98 99 100 101 102 103 104 105 106 107 108 109 110 111 112 113 114 115 116 117 118 119 120 121 122 123 124 125 126 127 128 129 130 131 132 133 134 135 136 137 138 139 140 141 142 143 144 145 146 147 148 149 150 151 152 153 154 155 156 157 158