Ergebnis 1 bis 1 von 1

Thema: Kuroko no Basket Mou Ikkai Yarimasen ka [Jap-Dub][Ger-Sub][480p]

Dieser Thread wurde noch nicht bewertet. Bewerte ihn doch, wenn er dir gefällt!
  1. #1
    Kami-sama Avatar von galudo
    Registriert seit
    Mar 2015
    Beiträge
    1.371
    Punkte
    26.002
    Errungenschaften:
    TomodachisTagger ProfiHyperaktivSenpaiGang Leader

    Kuroko no Basket Mou Ikkai Yarimasen ka [Jap-Dub][Ger-Sub][480p]

    Kuroko no Basket: Mou Ikkai Yarimasen ka
    黒子のバスケ 「もう一回やりませんか」
    Kuroko no Basket Episode 41.5




    Kurzbeschreibung
    Dieses OVA zeigt die Mitglieder der Generation der Wunder ein wenig detaillierter, besonders wird hierbei die Geschichte von Kuroko und Aomine gezeigt.
    Format: MP4
    Sprache: Japanisch
    Untertitel: Deutsch
    Größe: ~ 219 MB
    Dauer: ~ 24 Minuten
    Jahr: 2014
    Video: 480p
    Source: Web-Rip
    Subgroup / Releasegroup: Pure-Ani.me

    Hoster: Share-Online | Uploaded
    Passwort: siehe unten


    Datei-Info
    Spoiler
    Code:
    General
    Format                         : MPEG-4
    Format profile                 : Base Media
    Codec ID                       : isom
    File size                      : 219 MiB
    Duration                       : 24mn 25s
    Overall bit rate mode          : Variable
    Overall bit rate               : 1 252 Kbps
    
    Video
    ID                             : 1
    Format                         : AVC
    Format/Info                    : Advanced Video Codec
    Format profile                 : [email protected]
    Format settings, CABAC         : Yes
    Format settings, ReFrames      : 4 frames
    Codec ID                       : avc1
    Codec ID/Info                  : Advanced Video Coding
    Duration                       : 24mn 25s
    Bit rate                       : 1 100 Kbps
    Maximum bit rate               : 7 198 Kbps
    Width                          : 854 pixels
    Height                         : 480 pixels
    Display aspect ratio           : 16:9
    Original display aspect ratio  : 16:9
    Frame rate mode                : Constant
    Frame rate                     : 23.976 fps
    Color space                    : YUV
    Chroma subsampling             : 4:2:0
    Bit depth                      : 8 bits
    Scan type                      : Progressive
    Bits/(Pixel*Frame)             : 0.112
    Stream size                    : 192 MiB (88%)
    Writing library                : x264 core 146 r2538 121396c
    Encoding settings              : cabac=1 / ref=1 / deblock=1:0:0 / analyse=0x3:0x113 / me=hex / subme=2 / psy=1 / psy_rd=1.00:0.00 / mixed_ref=0 / me_range=16 / chroma_me=1 / trellis=0 / 8x8dct=1 / cqm=0 / deadzone=21,11 / fast_pskip=1 / chroma_qp_offset=0 / threads=12 / lookahead_threads=3 / sliced_threads=0 / nr=0 / decimate=1 / interlaced=0 / bluray_compat=0 / constrained_intra=0 / bframes=3 / b_pyramid=2 / b_adapt=1 / b_bias=0 / direct=1 / weightb=1 / open_gop=0 / weightp=1 / keyint=240 / keyint_min=23 / scenecut=40 / intra_refresh=0 / rc_lookahead=10 / rc=2pass / mbtree=1 / bitrate=1100 / ratetol=1.0 / qcomp=0.60 / qpmin=0 / qpmax=69 / qpstep=4 / cplxblur=20.0 / qblur=0.5 / ip_ratio=1.40 / aq=1:1.00
    
    Audio
    ID                             : 2
    Format                         : AAC
    Format/Info                    : Advanced Audio Codec
    Format profile                 : LC
    Codec ID                       : 40
    Duration                       : 24mn 25s
    Bit rate mode                  : Variable
    Bit rate                       : 148 Kbps
    Maximum bit rate               : 190 Kbps
    Channel(s)                     : 2 channels
    Channel positions              : Front: L R
    Sampling rate                  : 44.1 KHz
    Compression mode               : Lossy
    Stream size                    : 25.8 MiB (12%)


    || Download & Passwort ||
    Geschützter Bereich - Bedanke dich beim Poster, um den Bereich sehen zu können
    Hier erfährst Du wie Du Dich bedanken kannst oder werde jetzt Premium Mitglied ab einer Spende von 5€ und erhalte sofortigen Zugriff auf den Downloadbereich!

    Weiteres von Kuroko no Baske:
    OVA's
    [Links sind nur für registrierte und aktivierte Nutzer sichtbar. Klicke hier um dich zu registrieren.]
    [Links sind nur für registrierte und aktivierte Nutzer sichtbar. Klicke hier um dich zu registrieren.]
    Staffeln
    [Links sind nur für registrierte und aktivierte Nutzer sichtbar. Klicke hier um dich zu registrieren.]
    [Links sind nur für registrierte und aktivierte Nutzer sichtbar. Klicke hier um dich zu registrieren.]
    [Links sind nur für registrierte und aktivierte Nutzer sichtbar. Klicke hier um dich zu registrieren.]
    Geändert von galudo (21. April 2016 um 18:30 Uhr)
    SUPPORT UND REUP ANFRAGEN NUR >> [Links sind nur für registrierte und aktivierte Nutzer sichtbar. Klicke hier um dich zu registrieren.] <<
    Bitte IMMER den Thread-Link mitschicken.

  2. 32 Benutzer sagen Danke:

    aironic_inactive (19. July 2015),BlackPhoenix (14. April 2015),BlayZin (10. May 2015),chewbacka (3. July 2015),D15c05 (24. February 2016),Dylan (15. August 2015),etter (19. January 2016),JugoBetrugo (29. December 2015),KawaiiCookie (25. June 2015),Kira7 (18. July 2015),Kitesune (7. July 2015),lowb0b (14. April 2015),mar3el (5. November 2015),Meistermagier (8. July 2015),midnighter (14. April 2015),MJMax (22. December 2015),Nanatzusaya (2. July 2015),prinzvegeta (2. July 2015),PS Freak (13. May 2015),realmadridcf (31. October 2015),Ryu03 (15. May 2015),Saikou (19. December 2015),scarven (3. August 2015),Shana:3 (29. June 2015),showtekia (8. August 2015),Slyer333 (16. April 2015),SONNYxq (15. April 2015),UndeadBan (10. May 2015),Vastolord (25. April 2015),Wakaba (21. March 2016),Yuki+ (18. October 2015),Zeigerful (8. May 2015)

Stichworte

Lesezeichen

Berechtigungen

  • Neue Themen erstellen: Nein
  • Themen beantworten: Nein
  • Anhänge hochladen: Nein
  • Beiträge bearbeiten: Nein
  •  

1 2 3 4 5 6 7 8 9 10 11 12 13 14 15 16 17 18 19 20 21 22 23 24 25 26 27 28 29 30 31 32 33 34 35 36 37 38 39 40 41 42 43 44 45 46 47 48 49 50 51 52 53 54 55 56 57 58 59 60 61 62 63 64 65 66 67 68 69 70 71 72 73 74 75 76 77 78 79 80 81 82 83 84 85 86 87 88 89 90 91 92 93 94 95 96 97 98 99 100 101 102 103 104 105 106 107 108 109 110 111 112 113 114 115 116 117 118 119 120 121 122 123 124 125 126 127 128 129 130 131 132 133 134 135 136 137 138 139 140 141 142 143 144 145 146 147 148 149 150 151 152 153 154 155 156 157 158