Ergebnis 1 bis 1 von 1

Thema: Kyoshiro to Towa no Sora [Jap-Dub][Ger-Sub][480p][DVDRip]

Dieser Thread wurde noch nicht bewertet. Bewerte ihn doch, wenn er dir gefällt!
  1. #1
    Uploader Avatar von Filbo11
    Registriert seit
    Jan 2015
    Beiträge
    926
    Punkte
    17.174
    Errungenschaften:
    TomodachisErste Gruppe1 Jahr registriertCreated Album picturesTagger First Class

    Kyoshiro to Towa no Sora [Jap-Dub][Ger-Sub][480p][DVDRip]

    Kyoushirou to Towa no Sora
    京四郎と永遠(とわ)の空
    Shattered Angels, Kyoshiro and the Eternal Sky




    Handlung

    Kuu Shiratori phantasiert oft und träumt von ihrem “Prinzen”. Sie sehnt sich nach ihm, während sie ihr alltägliches Schulleben an der Akademie fortsetzt.
    Eines Tages kommt ein junger Mann namens Kyoshiro Ayanokouji in ihre Klasse und komischerweise hat er eine verblüffende Ähnlichkeit mit ihrem Traumprinz. Kuu ist ermutigt, aber nachdem die Dinge nicht so verlaufen, wie sie es will, findet sie heraus, dass Kyoshiro ganz anders ist, als sie sich ihn vorgestellt hat.


    Format: mp4
    Dauer: ca. 24 min
    Größe: ca. 160-200 MB (gesamt : 2,13 GB)
    Episodenanzahl: 12/12
    Sprache: Japanisch
    Untertitel: Deutsch
    Group: [Tai]
    Hoster: Uploaded.net & Share-Online.biz
    kein PW


    Screenshots & MediaInfo

    Spoiler
    [Links sind nur für registrierte und aktivierte Nutzer sichtbar. Klicke hier um dich zu registrieren.]

    [Links sind nur für registrierte und aktivierte Nutzer sichtbar. Klicke hier um dich zu registrieren.]

    Code:
    General
    Complete name               : [Tai]Kyoushirou_to_Towa_no_Sora_01_Gersub.mp4
    Format                      : MPEG-4
    Format profile              : Base Media / Version 2
    Codec ID                    : mp42
    File size                   : 202 MiB
    Duration                    : 24mn 11s
    Overall bit rate mode       : Variable
    Overall bit rate            : 1 165 Kbps
    Encoded date                : UTC 2036-02-06 06:28:16
    Tagged date                 : UTC 2036-02-06 06:28:16
    Writing application         : HandBrake 0.10.2 2015060900
    
    Video
    ID                          : 1
    Format                      : AVC
    Format/Info                 : Advanced Video Codec
    Format profile              : [email protected]
    Format settings, CABAC      : Yes
    Format settings, ReFrames   : 4 frames
    Codec ID                    : avc1
    Codec ID/Info               : Advanced Video Coding
    Duration                    : 24mn 11s
    Bit rate                    : 998 Kbps
    Width                       : 720 pixels
    Height                      : 480 pixels
    Display aspect ratio        : 16:9
    Frame rate mode             : Variable
    Frame rate                  : 24.574 fps
    Minimum frame rate          : 23.810 fps
    Maximum frame rate          : 30.303 fps
    Color space                 : YUV
    Chroma subsampling          : 4:2:0
    Bit depth                   : 8 bits
    Scan type                   : Progressive
    Bits/(Pixel*Frame)          : 0.118
    Stream size                 : 173 MiB (86%)
    Writing library             : x264 core 142 r2479 dd79a61
    Encoding settings           : cabac=1 / ref=1 / deblock=1:0:0 / analyse=0x1:0x111 / me=hex / subme=2 / psy=1 / psy_rd=1.00:0.00 / mixed_ref=0 / me_range=16 / chroma_me=1 / trellis=0 / 8x8dct=0 / cqm=0 / deadzone=21,11 / fast_pskip=1 / chroma_qp_offset=0 / threads=6 / lookahead_threads=2 / sliced_threads=0 / nr=0 / decimate=1 / interlaced=0 / bluray_compat=0 / constrained_intra=0 / bframes=3 / b_pyramid=2 / b_adapt=1 / b_bias=0 / direct=1 / weightb=1 / open_gop=0 / weightp=1 / keyint=300 / keyint_min=30 / scenecut=40 / intra_refresh=0 / rc_lookahead=10 / rc=crf / mbtree=1 / crf=20.0 / qcomp=0.60 / qpmin=0 / qpmax=69 / qpstep=4 / vbv_maxrate=20000 / vbv_bufsize=25000 / crf_max=0.0 / nal_hrd=none / filler=0 / ip_ratio=1.40 / aq=1:1.00
    Encoded date                : UTC 2036-02-06 06:28:16
    Tagged date                 : UTC 2036-02-06 06:28:16
    Color range                 : Limited
    Color primaries             : BT.601 NTSC
    Transfer characteristics    : BT.709
    Matrix coefficients         : BT.601
    
    Audio
    ID                          : 2
    Format                      : AAC
    Format/Info                 : Advanced Audio Codec
    Format profile              : LC
    Codec ID                    : 40
    Duration                    : 24mn 11s
    Bit rate mode               : Variable
    Bit rate                    : 160 Kbps
    Channel(s)                  : 2 channels
    Channel positions           : Front: L R
    Sampling rate               : 48.0 KHz
    Compression mode            : Lossy
    Stream size                 : 27.7 MiB (14%)
    Title                       : Stereo / Stereo
    Language                    : Japanese
    Encoded date                : UTC 2036-02-06 06:28:16
    Tagged date                 : UTC 2036-02-06 06:28:16


    Alle Mirrors untereinander kompatibel


    Download
    Geschützter Bereich - Bedanke dich beim Poster, um den Bereich sehen zu können
    Hier erfährst Du wie Du Dich bedanken kannst oder werde jetzt Premium Mitglied ab einer Spende von 5€ und erhalte sofortigen Zugriff auf den Downloadbereich!

    Geändert von Filbo11 (12. April 2016 um 10:16 Uhr)

    [Links sind nur für registrierte und aktivierte Nutzer sichtbar. Klicke hier um dich zu registrieren.]

    Ich wäre allen sehr dankbar, die mir gravierende Fehler in meinen Releases per PN melden

  2. 23 Benutzer sagen Danke:

    Aikanary (22. July 2015),aironic_inactive (19. July 2015),Akio (31. January 2016),Aluaran (20. July 2015),Antipott (7. February 2016),bjoegi (1. August 2015),Bloodywaffe (10. February 2016),Cande (19. July 2015),chris1989 (19. July 2015),Demon (19. August 2015),fuaso (19. July 2015),Infi (2. August 2015),johnny10 (9. September 2015),Kirdock (19. July 2015),krasserGaul (19. July 2015),mccharly (19. July 2015),midnighter (20. July 2015),Nanatzusaya (19. July 2015),old nick (19. July 2015),prinzvegeta (28. July 2015),SONNYxq (19. July 2015),Tzi (20. July 2015),Vice (20. July 2015)

Stichworte

Lesezeichen

Berechtigungen

  • Neue Themen erstellen: Nein
  • Themen beantworten: Nein
  • Anhänge hochladen: Nein
  • Beiträge bearbeiten: Nein
  •  

1 2 3 4 5 6 7 8 9 10 11 12 13 14 15 16 17 18 19 20 21 22 23 24 25 26 27 28 29 30 31 32 33 34 35 36 37 38 39 40 41 42 43 44 45 46 47 48 49 50 51 52 53 54 55 56 57 58 59 60 61 62 63 64 65 66 67 68 69 70 71 72 73 74 75 76 77 78 79 80 81 82 83 84 85 86 87 88 89 90 91 92 93 94 95 96 97 98 99 100 101 102 103 104 105 106 107 108 109 110 111 112 113 114 115 116 117 118 119 120 121 122 123 124 125 126 127 128 129 130 131 132 133 134 135 136 137 138 139 140 141 142 143 144 145 146 147 148 149 150 151 152 153 154 155 156 157 158