Ergebnis 1 bis 3 von 3

Thema: Love Lab [Jap-Dub][Ger-Sub][720p][1080p-10Bit][BluRay] - NaSu

Dieser Thread wurde noch nicht bewertet. Bewerte ihn doch, wenn er dir gefällt!
  1. #1
    United we Stand Avatar von 00Ryuji00
    Registriert seit
    Oct 2012
    Beiträge
    3.902
    Punkte
    100.092
    Errungenschaften:
    TomodachisGang LeaderHikikomoriTagger Amateur50000 Erfahrungspunkte

    Love Lab [Jap-Dub][Ger-Sub][720p][1080p-10Bit][BluRay] - NaSu

    Love Lab
    恋愛ラボ
    Renai Lab



    Kurzbeschreibung:
    Die Fujisaki Girls Academy ist bekannt dafür, dass die Schülerinnen dort alle wohlerzogen sind, allen voran Maki, Schülerpräsidentin und von ihren Klassenkameraden für ihre ruhige und höfliche Art bewundert. Auf der anderen Seite wäre da Kurahashi Riko, die allerdings für ihre direkte und jungenhafte Art bewundert wird. Eines Tages überrascht Riko Maki, während sie gerade mit einem Kissen das Küssen übt. Dadurch stellt Riko fest, dass Maki nicht die ist, für die sie alle halten. Riko wird darauf von Maki gezwungen, über das Gesehene zu schweigen und mit ihr auch noch allerhand romantische Dinge auszuprobieren wie Händchen halten und mehr.
    Sprache: Japanisch
    Untertitel: Deutsch
    Spieldauer: ~ 24min
    Größe: ~ 300MB, ~ 800MB
    Episodenanzahl: 03/13
    Format: .mp4
    Auflösung: 720p, 1080p-10Bit (1280x720/1920x1080, 16:9)
    Codec: x264, AAC
    Gruppe: NaSu
    Hoster: Uploaded, Share-Online

    Datei-Info.:
    Spoiler
    720p-8Bit
    Code:
    Format                                   : MPEG-4
    Format profile                           : Base Media
    Codec ID                                 : isom
    File size                                : 324 MiB
    Duration                                 : 24mn 29s
    Overall bit rate mode                    : Variable
    Overall bit rate                         : 1 849 Kbps
    Encoded date                             : UTC 2015-06-14 13:40:26
    Tagged date                              : UTC 2015-06-14 13:40:26
    
    Video
    ID                                       : 1
    Format                                   : AVC
    Format/Info                              : Advanced Video Codec
    Format profile                           : [email protected]
    Format settings, CABAC                   : Yes
    Format settings, ReFrames                : 9 frames
    Codec ID                                 : avc1
    Codec ID/Info                            : Advanced Video Coding
    Duration                                 : 24mn 29s
    Bit rate                                 : 1 654 Kbps
    Maximum bit rate                         : 8 268 Kbps
    Width                                    : 1 280 pixels
    Height                                   : 720 pixels
    Display aspect ratio                     : 16:9
    Frame rate mode                          : Constant
    Frame rate                               : 23.976 fps
    Color space                              : YUV
    Chroma subsampling                       : 4:2:0
    Bit depth                                : 8 bits
    Scan type                                : Progressive
    Bits/(Pixel*Frame)                       : 0.075
    Stream size                              : 290 MiB (89%)
    Writing library                          : x264 core 146 r2538 121396c
    Encoding settings                        : cabac=1 / ref=9 / deblock=1:-2:-2 / analyse=0x3:0x133 / me=umh / subme=10 / psy=1 / psy_rd=1.00:0.00 / mixed_ref=1 / me_range=24 / chroma_me=1 / trellis=2 / 8x8dct=1 / cqm=0 / deadzone=21,11 / fast_pskip=1 / chroma_qp_offset=-2 / threads=12 / lookahead_threads=3 / sliced_threads=0 / nr=0 / decimate=1 / interlaced=0 / bluray_compat=0 / constrained_intra=0 / bframes=10 / b_pyramid=2 / b_adapt=2 / b_bias=0 / direct=3 / weightb=1 / open_gop=0 / weightp=2 / keyint=240 / keyint_min=22 / scenecut=40 / intra_refresh=0 / rc=crf / mbtree=0 / crf=17.0 / qcomp=0.60 / qpmin=0 / qpmax=69 / qpstep=4 / ip_ratio=1.40 / pb_ratio=1.30 / aq=2:0.85
    Encoded date                             : UTC 2015-06-14 13:27:38
    Tagged date                              : UTC 2015-06-14 13:40:28
    
    Audio
    ID                                       : 2
    Format                                   : AAC
    Format/Info                              : Advanced Audio Codec
    Format profile                           : LC
    Codec ID                                 : 40
    Duration                                 : 24mn 29s
    Bit rate mode                            : Variable
    Bit rate                                 : 192 Kbps
    Maximum bit rate                         : 199 Kbps
    Channel count                            : 2 channels
    Channel positions                        : Front: L R
    Sampling rate                            : 48.0 KHz
    Compression mode                         : Lossy
    Stream size                              : 33.6 MiB (10%)
    Language                                 : Japanese
    Encoded date                             : UTC 2015-06-14 12:51:35
    Tagged date                              : UTC 2015-06-14 13:40:28
    
    Menu
    00:00:00.000                             : Einleitung
    00:02:32.026                             : Opening
    00:04:01.991                             : 01 Ihre außergewöhnliche Begegnung - A
    00:12:09.979                             : 01 Ihre außergewöhnliche Begegnung - B
    00:22:28.013                             : Ending
    00:23:58.019                             : Vorschau
    
    1080p-10Bit
    Code:
    Format                                   : MPEG-4
    Format profile                           : Base Media
    Codec ID                                 : isom
    File size                                : 786 MiB
    Duration                                 : 24mn 29s
    Overall bit rate mode                    : Variable
    Overall bit rate                         : 4 489 Kbps
    Encoded date                             : UTC 2015-06-15 15:49:27
    Tagged date                              : UTC 2015-06-15 15:49:27
    
    Video
    ID                                       : 1
    Format                                   : AVC
    Format/Info                              : Advanced Video Codec
    Format profile                           : High [email protected]
    Format settings, CABAC                   : Yes
    Format settings, ReFrames                : 13 frames
    Codec ID                                 : avc1
    Codec ID/Info                            : Advanced Video Coding
    Duration                                 : 24mn 29s
    Bit rate                                 : 4 229 Kbps
    Maximum bit rate                         : 19.3 Mbps
    Width                                    : 1 920 pixels
    Height                                   : 1 080 pixels
    Display aspect ratio                     : 16:9
    Frame rate mode                          : Constant
    Frame rate                               : 23.976 fps
    Color space                              : YUV
    Chroma subsampling                       : 4:2:0
    Bit depth                                : 10 bits
    Scan type                                : Progressive
    Bits/(Pixel*Frame)                       : 0.085
    Stream size                              : 741 MiB (94%)
    Writing library                          : x264 core 146 r2538 121396c
    Encoding settings                        : cabac=1 / ref=13 / deblock=1:-2:-2 / analyse=0x3:0x133 / me=umh / subme=10 / psy=1 / psy_rd=1.00:0.00 / mixed_ref=1 / me_range=32 / chroma_me=1 / trellis=2 / 8x8dct=1 / cqm=0 / deadzone=21,11 / fast_pskip=1 / chroma_qp_offset=-2 / threads=12 / lookahead_threads=3 / sliced_threads=0 / nr=0 / decimate=1 / interlaced=0 / bluray_compat=0 / constrained_intra=0 / bframes=10 / b_pyramid=2 / b_adapt=2 / b_bias=0 / direct=3 / weightb=1 / open_gop=0 / weightp=2 / keyint=240 / keyint_min=22 / scenecut=40 / intra_refresh=0 / rc=crf / mbtree=0 / crf=17.5 / qcomp=0.60 / qpmin=0 / qpmax=81 / qpstep=4 / ip_ratio=1.40 / pb_ratio=1.30 / aq=2:0.85
    Encoded date                             : UTC 2015-06-15 15:44:54
    Tagged date                              : UTC 2015-06-15 15:49:29
    
    Audio
    ID                                       : 2
    Format                                   : AAC
    Format/Info                              : Advanced Audio Codec
    Format profile                           : LC
    Codec ID                                 : 40
    Duration                                 : 24mn 29s
    Bit rate mode                            : Variable
    Bit rate                                 : 256 Kbps
    Maximum bit rate                         : 262 Kbps
    Channel count                            : 2 channels
    Channel positions                        : Front: L R
    Sampling rate                            : 48.0 KHz
    Compression mode                         : Lossy
    Stream size                              : 44.8 MiB (6%)
    Language                                 : Japanese
    Encoded date                             : UTC 2015-06-15 12:57:07
    Tagged date                              : UTC 2015-06-15 15:49:29
    
    Menu
    00:00:00.000                             : Einleitung
    00:02:32.026                             : Opening
    00:04:01.991                             : 01 Ihre außergewöhnliche Begegnung - A
    00:12:09.979                             : 01 Ihre außergewöhnliche Begegnung - B
    00:22:28.013                             : Ending
    00:23:58.019                             : Vorschau
    


    Geschützter Bereich - Bedanke dich beim Poster, um den Bereich sehen zu können
    Hier erfährst Du wie Du Dich bedanken kannst oder werde jetzt Premium Mitglied ab einer Spende von 5€ und erhalte sofortigen Zugriff auf den Downloadbereich!
    Geändert von 00Ryuji00 (14. April 2016 um 05:05 Uhr)
    !!!Alle Anliegen bezüglich Uploads werden nur mit direktem Threadlink zum Angebot bearbeitet!!!

    Re-Uploadanfragen nur per PN - Ihr könnt mir auch Listen schicken

    Re-Uploads folgen nach Anfrage meist am Wochenende

    [Links sind nur für registrierte und aktivierte Nutzer sichtbar. Klicke hier um dich zu registrieren.] | [Links sind nur für registrierte und aktivierte Nutzer sichtbar. Klicke hier um dich zu registrieren.] | >[Links sind nur für registrierte und aktivierte Nutzer sichtbar. Klicke hier um dich zu registrieren.]<
    [Links sind nur für registrierte und aktivierte Nutzer sichtbar. Klicke hier um dich zu registrieren.]

  2. 41 Benutzer sagen Danke:

    Akuma1708 (13. July 2015),Aluaran (19. June 2015),Black Lotus (9. September 2015),Blubyblub (2. October 2015),Conopas (20. June 2015),Corntendo (19. January 2016),Dalurin (19. September 2015),dionys (24. October 2015),Drachengott (28. July 2015),dreambird1973 (12. January 2016),enfii (18. September 2015),foiderbua (28. January 2016),hasegawa (5. October 2015),Icke (18. September 2015),Ignasum (19. June 2015),Kartox (18. September 2015),kaschimmi (20. June 2015),KeXiuS (19. August 2015),mccharly (27. July 2015),Melijal (29. June 2015),midnighter (20. June 2015),Miles360 (27. July 2015),nemo (28. June 2015),okzide (18. September 2015),Pipsargen (30. March 2016),Praxas (20. July 2015),Raphael96 (22. April 2016),rekiznuh1 (7. October 2015),Rekke (28. July 2015),Ronae (19. June 2015),S4nCh3z (15. November 2016),sabs0686 (6. November 2015),Scorns (18. October 2016),Skully_88 (3. October 2015),SONNYxq (27. July 2015),Tidus18 (9. March 2016),Tzi (28. July 2015),Varkoo (24. October 2015),Windwusel (18. September 2015),YozoraShiku (10. August 2015),Zap (22. June 2015)

  3. #2
    United we Stand Avatar von 00Ryuji00
    Registriert seit
    Oct 2012
    Beiträge
    3.902
    Punkte
    100.092
    Errungenschaften:
    TomodachisGang LeaderHikikomoriTagger Amateur50000 Erfahrungspunkte

    AW: Love Lab [Jap-Dub][Ger-Sub][720p][1080p-10Bit][BluRay]

    Folge 2 online ~
    !!!Alle Anliegen bezüglich Uploads werden nur mit direktem Threadlink zum Angebot bearbeitet!!!

    Re-Uploadanfragen nur per PN - Ihr könnt mir auch Listen schicken

    Re-Uploads folgen nach Anfrage meist am Wochenende

    [Links sind nur für registrierte und aktivierte Nutzer sichtbar. Klicke hier um dich zu registrieren.] | [Links sind nur für registrierte und aktivierte Nutzer sichtbar. Klicke hier um dich zu registrieren.] | >[Links sind nur für registrierte und aktivierte Nutzer sichtbar. Klicke hier um dich zu registrieren.]<
    [Links sind nur für registrierte und aktivierte Nutzer sichtbar. Klicke hier um dich zu registrieren.]

  4. #3
    United we Stand Avatar von 00Ryuji00
    Registriert seit
    Oct 2012
    Beiträge
    3.902
    Punkte
    100.092
    Errungenschaften:
    TomodachisGang LeaderHikikomoriTagger Amateur50000 Erfahrungspunkte

    AW: Love Lab [Jap-Dub][Ger-Sub][720p][1080p-10Bit][BluRay]

    Folge 3 online ~
    !!!Alle Anliegen bezüglich Uploads werden nur mit direktem Threadlink zum Angebot bearbeitet!!!

    Re-Uploadanfragen nur per PN - Ihr könnt mir auch Listen schicken

    Re-Uploads folgen nach Anfrage meist am Wochenende

    [Links sind nur für registrierte und aktivierte Nutzer sichtbar. Klicke hier um dich zu registrieren.] | [Links sind nur für registrierte und aktivierte Nutzer sichtbar. Klicke hier um dich zu registrieren.] | >[Links sind nur für registrierte und aktivierte Nutzer sichtbar. Klicke hier um dich zu registrieren.]<
    [Links sind nur für registrierte und aktivierte Nutzer sichtbar. Klicke hier um dich zu registrieren.]

Lesezeichen

Berechtigungen

  • Neue Themen erstellen: Nein
  • Themen beantworten: Nein
  • Anhänge hochladen: Nein
  • Beiträge bearbeiten: Nein
  •  

1 2 3 4 5 6 7 8 9 10 11 12 13 14 15 16 17 18 19 20 21 22 23 24 25 26 27 28 29 30 31 32 33 34 35 36 37 38 39 40 41 42 43 44 45 46 47 48 49 50 51 52 53 54 55 56 57 58 59 60 61 62 63 64 65 66 67 68 69 70 71 72 73 74 75 76 77 78 79 80 81 82 83 84 85 86 87 88 89 90 91 92 93 94 95 96 97 98 99 100 101 102 103 104 105 106 107 108 109 110 111 112 113 114 115 116 117 118 119 120 121 122 123 124 125 126 127 128 129 130 131 132 133 134 135 136 137 138 139 140 141 142 143 144 145 146 147 148 149 150 151 152 153 154 155 156 157 158