Ergebnis 1 bis 1 von 1

Thema: Lovely Complex [Jap-Dub][Ger-Sub][480p][DVDRip]-GK

Dieser Thread wurde noch nicht bewertet. Bewerte ihn doch, wenn er dir gefällt!
  1. #1
    United we Stand Avatar von 00Ryuji00
    Registriert seit
    Oct 2012
    Beiträge
    3.902
    Punkte
    100.092
    Errungenschaften:
    TomodachisGang LeaderHikikomoriTagger Amateur50000 Erfahrungspunkte

    Lovely Complex [Jap-Dub][Ger-Sub][480p][DVDRip]-GK


    Lovely Complex
    ラブ★コン
    LoveCom






    Kurzbeschreibung:
    Zitat Zitat von AniSearch.com
    Risa Koizumi ist eigentlich ein ganz normales japanisches Mädchen, doch eine Sache ist anders. Mit ihrer Größe von 1,70m ist Risa für eine Japanerin verhältnismäßig groß gewachsen. Zu allem Überfluss gibt es da noch Atsushi Ootani, ein Junge, der in der gleichen Klasse wie Risa ist und auch ein Problem mit seiner Größe hat. Nur ist er nicht zu groß, sondern zu klein. Genau dieser Komplex ist es, der die beiden mehr oder weniger verbindet und der beste Zündstoff für eine schöne, aber auch lustige Liebesgeschichte ist. Hinzu kommt, dass sich beide anfangs nicht leiden können, was sie jedoch nicht davon abhält sich zu verbünden, um dem jeweiligen anderen einen Partner zu verschaffen.

    Aber wie man bekanntlich weiß, ziehen sich Gegensätze an und wie heißt es doch so schön? Was sich liebt, das neckt sich...


    Spieldauer: 25min
    Genre: Romantische Komödie
    Nebengenres: Alltagsleben, Komödie, Romanze, Weiblich
    Jahr: 2007
    Sprache: Japanisch
    Untertitel: Deutsch
    Größe pro Folge: ~175 MiB
    Episodenanzahl: 24/24
    Format: AVI
    Auflösung: 480p (4:3)
    Videocodec: XviD (MPEG-4 Visual)
    Audiocodec: MPEG Audio
    Releasegruppe: GK
    Hoster: Share-Online, Uploaded


    MediaInfo
    Code:
    
    Format                                   : AVI
    Format/Info                              : Audio Video Interleave
    File size                                : 175 MiB
    Duration                                 : 23mn 40s
    Overall bit rate                         : 1 031 Kbps
    Writing application                      : VirtualDubMod 1.5.10.2 (build 2540/release)
    Writing library                          : VirtualDubMod build 2540/release
    
    Video
    ID                                       : 0
    Format                                   : MPEG-4 Visual
    Format profile                           : Advanced [email protected]
    Format settings, BVOP                    : 2
    Format settings, QPel                    : No
    Format settings, GMC                     : No warppoints
    Format settings, Matrix                  : Default (H.263)
    Muxing mode                              : Packed bitstream
    Codec ID                                 : XVID
    Codec ID/Hint                            : XviD
    Duration                                 : 23mn 40s
    Bit rate                                 : 894 Kbps
    Width                                    : 640 pixels
    Height                                   : 480 pixels
    Display aspect ratio                     : 4:3
    Frame rate                               : 23.976 fps
    Color space                              : YUV
    Chroma subsampling                       : 4:2:0
    Bit depth                                : 8 bits
    Scan type                                : Progressive
    Compression mode                         : Lossy
    Bits/(Pixel*Frame)                       : 0.121
    Stream size                              : 151 MiB (87%)
    Writing library                          : XviD 1.2.0SMP (UTC 2006-01-08)
    
    Audio
    ID                                       : 1
    Format                                   : MPEG Audio
    Format version                           : Version 1
    Format profile                           : Layer 3
    Mode                                     : Joint stereo
    Mode extension                           : MS Stereo
    Codec ID                                 : 55
    Codec ID/Hint                            : MP3
    Duration                                 : 23mn 40s
    Bit rate mode                            : Constant
    Bit rate                                 : 128 Kbps
    Channel(s)                               : 2 channels
    Sampling rate                            : 48.0 KHz
    Compression mode                         : Lossy
    Stream size                              : 21.7 MiB (12%)
    Alignment                                : Aligned on interleaves
    Interleave, duration                     : 42 ms (1.00 video frame)
    Interleave, preload duration             : 504 ms
    
    






    Geschützter Bereich - Bedanke dich beim Poster, um den Bereich sehen zu können
    Hier erfährst Du wie Du Dich bedanken kannst oder werde jetzt Premium Mitglied ab einer Spende von 5€ und erhalte sofortigen Zugriff auf den Downloadbereich!



    [Links sind nur für registrierte und aktivierte Nutzer sichtbar. Klicke hier um dich zu registrieren.]
    Geändert von so1k (12. October 2016 um 20:24 Uhr)
    !!!Alle Anliegen bezüglich Uploads werden nur mit direktem Threadlink zum Angebot bearbeitet!!!

    Re-Uploadanfragen nur per PN - Ihr könnt mir auch Listen schicken

    Re-Uploads folgen nach Anfrage meist am Wochenende

    [Links sind nur für registrierte und aktivierte Nutzer sichtbar. Klicke hier um dich zu registrieren.] | [Links sind nur für registrierte und aktivierte Nutzer sichtbar. Klicke hier um dich zu registrieren.] | >[Links sind nur für registrierte und aktivierte Nutzer sichtbar. Klicke hier um dich zu registrieren.]<
    [Links sind nur für registrierte und aktivierte Nutzer sichtbar. Klicke hier um dich zu registrieren.]

  2. 16 Benutzer sagen Danke:

    Akio (28. January 2016),coldbears48 (31. December 2015),famoon (23. April 2016),Geisterhaendler (31. December 2015),Goki.Grokus (5. January 2016),Knuddelbearli (26. January 2016),LawrenceKraft (31. December 2015),Magikarp (1. December 2016),MatrixEsl (2. January 2016),midnighter (31. December 2015),mik_y (19. January 2016),realmadridcf (19. February 2016),Reaper1 (24. November 2016),Rheijaa (12. February 2016),Shirayah (22. March 2016),Sylux (23. January 2016)

Lesezeichen

Berechtigungen

  • Neue Themen erstellen: Nein
  • Themen beantworten: Nein
  • Anhänge hochladen: Nein
  • Beiträge bearbeiten: Nein
  •  

1 2 3 4 5 6 7 8 9 10 11 12 13 14 15 16 17 18 19 20 21 22 23 24 25 26 27 28 29 30 31 32 33 34 35 36 37 38 39 40 41 42 43 44 45 46 47 48 49 50 51 52 53 54 55 56 57 58 59 60 61 62 63 64 65 66 67 68 69 70 71 72 73 74 75 76 77 78 79 80 81 82 83 84 85 86 87 88 89 90 91 92 93 94 95 96 97 98 99 100 101 102 103 104 105 106 107 108 109 110 111 112 113 114 115 116 117 118 119 120 121 122 123 124 125 126 127 128 129 130 131 132 133 134 135 136 137 138 139 140 141 142 143 144 145 146 147 148 149 150 151 152 153 154 155 156 157 158