Ergebnis 1 bis 1 von 1

Thema: Maburaho [Jap-Dub][Ger-Sub][720p-8Bit/-10Bit][BluRay] - NaSu

Dieser Thread wurde noch nicht bewertet. Bewerte ihn doch, wenn er dir gefällt!
  1. #1
    Uploader Avatar von Filbo11
    Registriert seit
    Jan 2015
    Beiträge
    931
    Punkte
    17.281
    Errungenschaften:
    TomodachisErste Gruppe1 Jahr registriertCreated Album picturesTagger First Class

    Maburaho [Jap-Dub][Ger-Sub][720p-8Bit/-10Bit][BluRay] - NaSu

    Maburaho
    まぶらほ




    Beschreibung

    Der Hauptcharakter ist der siebzehn Jahre alte Kazuki Shikimori. Er geht zu einer Eliteschule, die ihren Schülern die Kunst der Magie lehren. Aber bei seinen Noten ginge es wohl schneller von hinten anzufangen zu zählen. Wenn das nicht schon genug wäre, kann er nur acht mal Magie in seinem ganzen Leben anwenden. Wenn er diese acht mal verbraucht hat, wird sein Körper zu Staub zerfallen. Um dies zu vermeiden, verbringt er sein Leben depressiv, niedergeschlagen und ohne Magie zu verwenden, aber für seine Mitschüler gehört Magie natürlich zum Alltag, was ihn noch weiter deprimiert...


    Format: mp4
    Dauer: ca. 24 min
    Größe: ca. ~300 MB [8Bit] / ~260 MB [10Bit]
    Sprache: Japanisch
    Untertitel: Deutsch
    Episodenanzahl: 24/24
    Group: [Naked-Subs]
    Hoster: Uploaded.net & Share-Online.biz
    Passwort: byFilbo11

    Screenshots & MediaInfo

    8Bit
    [Links sind nur für registrierte und aktivierte Nutzer sichtbar. Klicke hier um dich zu registrieren.]

    Code:
    General
    Complete name               : [NaSu]Maburaho 01 BD[8bit 960x720 x264 AAC][4A1F2D14].mp4
    Format                      : MPEG-4
    Format profile              : Base Media
    Codec ID                    : isom (isom)
    File size                   : 301 MiB
    Duration                    : 23 min
    Overall bit rate mode       : Variable
    Overall bit rate            : 1 764 kb/s
    Encoded date                : UTC 2014-04-30 18:29:29
    Tagged date                 : UTC 2014-04-30 18:29:29
    
    Video
    ID                          : 1
    Format                      : AVC
    Format/Info                 : Advanced Video Codec
    Format profile              : [email protected]
    Format settings, CABAC      : Yes
    Format settings, ReFrames   : 12 frames
    Codec ID                    : avc1
    Codec ID/Info               : Advanced Video Coding
    Duration                    : 23 min
    Bit rate                    : 1 566 kb/s
    Maximum bit rate            : 9 959 kb/s
    Width                       : 960 pixels
    Height                      : 720 pixels
    Display aspect ratio        : 4:3
    Frame rate mode             : Constant
    Frame rate                  : 23.976 (24000/1001) FPS
    Color space                 : YUV
    Chroma subsampling          : 4:2:0
    Bit depth                   : 8 bits
    Scan type                   : Progressive
    Bits/(Pixel*Frame)          : 0.094
    Stream size                 : 267 MiB (89%)
    Writing library             : x264 core 138 r2358 9e941d1
    Encoding settings           : cabac=1 / ref=12 / deblock=1:0:0 / analyse=0x3:0x133 / me=umh / subme=10 / psy=1 / psy_rd=0.82:0.12 / mixed_ref=1 / me_range=24 / chroma_me=1 / trellis=2 / 8x8dct=1 / cqm=0 / deadzone=21,11 / fast_pskip=1 / chroma_qp_offset=-3 / threads=12 / lookahead_threads=3 / sliced_threads=0 / nr=0 / decimate=1 / interlaced=0 / bluray_compat=0 / constrained_intra=0 / bframes=10 / b_pyramid=2 / b_adapt=2 / b_bias=0 / direct=3 / weightb=1 / open_gop=0 / weightp=2 / keyint=230 / keyint_min=22 / scenecut=40 / intra_refresh=0 / rc_lookahead=60 / rc=2pass / mbtree=1 / bitrate=1566 / ratetol=1.0 / qcomp=0.60 / qpmin=0 / qpmax=69 / qpstep=4 / cplxblur=20.0 / qblur=0.5 / ip_ratio=1.40 / aq=1:0.60
    Encoded date                : UTC 2014-04-30 17:24:20
    Tagged date                 : UTC 2014-04-30 18:29:30
    
    Audio
    ID                          : 2
    Format                      : AAC
    Format/Info                 : Advanced Audio Codec
    Format profile              : LC
    Codec ID                    : 40
    Duration                    : 23 min
    Bit rate mode               : Variable
    Bit rate                    : 192 kb/s
    Maximum bit rate            : 201 kb/s
    Channel(s)                  : 2 channels
    Channel positions           : Front: L R
    Sampling rate               : 48.0 kHz
    Frame rate                  : 46.875 FPS (1024 spf)
    Compression mode            : Lossy
    Stream size                 : 32.9 MiB (11%)
    Language                    : Japanese
    Encoded date                : UTC 2014-04-30 16:34:41
    Tagged date                 : UTC 2014-04-30 18:29:30
    
    Menu
    00:00:00.000                : Einleitung
    00:01:29.506                : 01 Sie kamen...
    00:21:59.026                : Ending
    00:23:29.032                : Vorschau


    10Bit
    [Links sind nur für registrierte und aktivierte Nutzer sichtbar. Klicke hier um dich zu registrieren.]

    Code:
    General
    Complete name               : [NaSu]Maburaho 01 BD[10bit 960x720 x264 AAC][8CD476A6].mp4
    Format                      : MPEG-4
    Format profile              : Base Media
    Codec ID                    : isom (isom)
    File size                   : 268 MiB
    Duration                    : 23 min
    Overall bit rate mode       : Variable
    Overall bit rate            : 1 573 kb/s
    Encoded date                : UTC 2014-04-30 18:29:31
    Tagged date                 : UTC 2014-04-30 18:29:31
    
    Video
    ID                          : 1
    Format                      : AVC
    Format/Info                 : Advanced Video Codec
    Format profile              : High [email protected]
    Format settings, CABAC      : Yes
    Format settings, ReFrames   : 16 frames
    Codec ID                    : avc1
    Codec ID/Info               : Advanced Video Coding
    Duration                    : 23 min
    Bit rate                    : 1 281 kb/s
    Maximum bit rate            : 7 362 kb/s
    Width                       : 960 pixels
    Height                      : 720 pixels
    Display aspect ratio        : 4:3
    Frame rate mode             : Constant
    Frame rate                  : 23.976 (24000/1001) FPS
    Color space                 : YUV
    Chroma subsampling          : 4:2:0
    Bit depth                   : 10 bits
    Scan type                   : Progressive
    Bits/(Pixel*Frame)          : 0.077
    Stream size                 : 218 MiB (81%)
    Writing library             : x264 core 138 r2358 9e941d1
    Encoding settings           : cabac=1 / ref=16 / deblock=1:0:0 / analyse=0x3:0x133 / me=umh / subme=10 / psy=1 / psy_rd=0.82:0.12 / mixed_ref=1 / me_range=32 / chroma_me=1 / trellis=2 / 8x8dct=1 / cqm=0 / deadzone=21,11 / fast_pskip=1 / chroma_qp_offset=-3 / threads=12 / lookahead_threads=3 / sliced_threads=0 / nr=0 / decimate=1 / interlaced=0 / bluray_compat=0 / constrained_intra=0 / bframes=10 / b_pyramid=2 / b_adapt=2 / b_bias=0 / direct=3 / weightb=1 / open_gop=0 / weightp=2 / keyint=230 / keyint_min=22 / scenecut=40 / intra_refresh=0 / rc_lookahead=60 / rc=crf / mbtree=1 / crf=16.0 / qcomp=0.60 / qpmin=0 / qpmax=81 / qpstep=4 / ip_ratio=1.40 / aq=1:0.60
    Encoded date                : UTC 2014-04-30 18:26:11
    Tagged date                 : UTC 2014-04-30 18:29:32
    
    Audio
    ID                          : 2
    Format                      : AAC
    Format/Info                 : Advanced Audio Codec
    Format profile              : LC
    Codec ID                    : 40
    Duration                    : 23 min
    Bit rate mode               : Variable
    Bit rate                    : 288 kb/s
    Maximum bit rate            : 295 kb/s
    Channel(s)                  : 2 channels
    Channel positions           : Front: L R
    Sampling rate               : 48.0 kHz
    Frame rate                  : 46.875 FPS (1024 spf)
    Compression mode            : Lossy
    Stream size                 : 49.1 MiB (18%)
    Language                    : Japanese
    Encoded date                : UTC 2014-04-30 17:40:26
    Tagged date                 : UTC 2014-04-30 18:29:32
    
    Menu
    00:00:00.000                : Einleitung
    00:01:29.506                : 01 Sie kamen...
    00:21:59.026                : Ending
    00:23:29.032                : Vorschau


    Alle Mirrors untereinander kompatibel
    Folgen einzeln ladbar



    Download
    Geschützter Bereich - Bedanke dich beim Poster, um den Bereich sehen zu können
    Hier erfährst Du wie Du Dich bedanken kannst oder werde jetzt Premium Mitglied ab einer Spende von 5€ und erhalte sofortigen Zugriff auf den Downloadbereich!



    [Links sind nur für registrierte und aktivierte Nutzer sichtbar. Klicke hier um dich zu registrieren.]

    Ich wäre allen sehr dankbar, die mir gravierende Fehler in meinen Releases per PN melden

  2. 4 Benutzer sagen Danke:

    Arekusu (17. August 2016),Schweigi (25. October 2016),Terrorhasii.x3 (29. July 2016),TheYoAsakura (1. September 2016)

Lesezeichen

Berechtigungen

  • Neue Themen erstellen: Nein
  • Themen beantworten: Nein
  • Anhänge hochladen: Nein
  • Beiträge bearbeiten: Nein
  •  

1 2 3 4 5 6 7 8 9 10 11 12 13 14 15 16 17 18 19 20 21 22 23 24 25 26 27 28 29 30 31 32 33 34 35 36 37 38 39 40 41 42 43 44 45 46 47 48 49 50 51 52 53 54 55 56 57 58 59 60 61 62 63 64 65 66 67 68 69 70 71 72 73 74 75 76 77 78 79 80 81 82 83 84 85 86 87 88 89 90 91 92 93 94 95 96 97 98 99 100 101 102 103 104 105 106 107 108 109 110 111 112 113 114 115 116 117 118 119 120 121 122 123 124 125 126 127 128 129 130 131 132 133 134 135 136 137 138 139 140 141 142 143 144 145 146 147 148 149 150 151 152 153 154 155 156 157 158