Ergebnis 1 bis 1 von 1

Thema: Madan no Ou to Vanadis + Specials [Jap-Dub][Ger-Sub][720p][HDTV]

Dieser Thread wurde noch nicht bewertet. Bewerte ihn doch, wenn er dir gefällt!
  1. #1
    United we Stand Avatar von 00Ryuji00
    Registriert seit
    Oct 2012
    Beiträge
    3.902
    Punkte
    100.019
    Errungenschaften:
    TomodachisGang LeaderHikikomoriTagger Amateur50000 Erfahrungspunkte

    Madan no Ou to Vanadis + Specials [Jap-Dub][Ger-Sub][720p][HDTV]

    Madan no Ou to Vanadis
    魔弾の王と戦姫[ヴァナディース]
    Lord Marksman and Vanadis






    Kurzbeschreibung:
    Die Geschichte spielt in Westeuropa, zu einer Zeit, in der der Krieg den Alltag der Menschen bestimmte. Zu dieser Zeit herrschen sieben Vanadis über sieben Territorien. Die Vanadis wurden nach den mächtigen Waffen benannt, welche sie von einem Drachen anvertraut bekommen haben. Die Macht der Vanadis lässt ihre Gegner und Feinde vor Angst erschaudern und macht sie fast unantastbar für jene, die es wagen sich ihnen entgegen zu stellen.
    Ein junger Graf und Bogenschütze, namens Tigre, aus dem Land von Brune konnte die Macht, die den Vanadis inne wohnt, am eigenen Leib erfahren, als diese angriffen, um das Land einzunehmen. Er wurde von Eleanor "Ellen" Vertalia, welche die Vanadis von Zhcted im Kampf um Brune anführte, auf dem Schlachtfeld besiegt. Ellen aber verschonte das Leben des jungen Mannes, nachdem sie von den Fähigkeiten und Fertigkeiten Tigres erfuhr. Im Austausch für sein Leben muss Tigre von nun an als Diener an Ellens Seite stehen.


    Sprache: Japanisch
    Untertitel: Deutsch
    Episodenanzahl: 13/13 + 14/14
    Format: .mp4
    Auflösung: 720p (16:9)
    Codec: x264
    Gruppe: Dark Sub Subs
    Hoster: Share-Online ; Uploaded


    Datei Info:
    Spoiler

    Code:
    
    
    
    Format profile                           : Base Media / Version 2
    Codec ID                                 : mp42
    File size                                : 460 MiB
    Duration                                 : 23mn 39s
    Overall bit rate mode                    : Variable
    Overall bit rate                         : 2 718 Kbps
    Encoded date                             : UTC 2014-10-05 19:57:22
    Tagged date                              : UTC 2014-10-05 20:31:14
    Writing application                      : HandBrake 0.9.9 2013052900
    
    Video
    ID                                       : 1
    Format                                   : AVC
    Format/Info                              : Advanced Video Codec
    Format profile                           : [email protected]
    Format settings, CABAC                   : Yes
    Format settings, ReFrames                : 8 frames
    Codec ID                                 : avc1
    Codec ID/Info                            : Advanced Video Coding
    Duration                                 : 23mn 39s
    Bit rate                                 : 2 525 Kbps
    Width                                    : 1 280 pixels
    Height                                   : 720 pixels
    Display aspect ratio                     : 16:9
    Frame rate mode                          : Variable
    Frame rate                               : 23.976 fps
    Minimum frame rate                       : 23.974 fps
    Maximum frame rate                       : 90 000.000 fps
    Color space                              : YUV
    Chroma subsampling                       : 4:2:0
    Bit depth                                : 8 bits
    Scan type                                : Progressive
    Bits/(Pixel*Frame)                       : 0.114
    Stream size                              : 427 MiB (93%)
    Writing library                          : x264 core 130 r2273 b3065e6
    Encoding settings                        : cabac=1 / ref=8 / deblock=1:0:0 / analyse=0x1:0x131 / me=umh / subme=9 / psy=1 / psy_rd=1.00:0.00 / mixed_ref=1 / me_range=16 / chroma_me=1 / trellis=2 / 8x8dct=0 / cqm=0 / deadzone=21,11 / fast_pskip=1 / chroma_qp_offset=-2 / threads=6 / lookahead_threads=1 / sliced_threads=0 / nr=0 / decimate=1 / interlaced=0 / bluray_compat=0 / constrained_intra=0 / bframes=3 / b_pyramid=2 / b_adapt=2 / b_bias=0 / direct=3 / weightb=1 / open_gop=0 / weightp=2 / keyint=240 / keyint_min=24 / scenecut=40 / intra_refresh=0 / rc_lookahead=60 / rc=crf / mbtree=1 / crf=16.0 / qcomp=0.60 / qpmin=0 / qpmax=69 / qpstep=4 / vbv_maxrate=20000 / vbv_bufsize=25000 / crf_max=0.0 / nal_hrd=none / ip_ratio=1.40 / aq=1:1.00
    Encoded date                             : UTC 2014-10-05 19:57:22
    Tagged date                              : UTC 2014-10-05 20:31:14
    Color primaries                          : BT.709
    Transfer characteristics                 : BT.709
    Matrix coefficients                      : BT.709
    
    Audio
    ID                                       : 2
    Format                                   : AAC
    Format/Info                              : Advanced Audio Codec
    Format profile                           : LC
    Codec ID                                 : 40
    Duration                                 : 23mn 39s
    Bit rate mode                            : Variable
    Bit rate                                 : 192 Kbps
    Channel count                            : 2 channels
    Channel positions                        : Front: L R
    Sampling rate                            : 48.0 KHz
    Compression mode                         : Lossy
    Stream size                              : 31.9 MiB (7%)
    Language                                 : Japanese
    Encoded date                             : UTC 2014-10-05 19:57:22
    Tagged date                              : UTC 2014-10-05 20:31:13
    
    Menu
    ID                                       : 3
    Codec ID                                 : text
    Duration                                 : 23mn 39s
    Encoded date                             : UTC 2014-10-05 19:57:22
    Tagged date                              : UTC 2014-10-05 20:31:14
    Bit rate mode                            : CBR
    
    
    






    Geschützter Bereich - Bedanke dich beim Poster, um den Bereich sehen zu können
    Hier erfährst Du wie Du Dich bedanken kannst oder werde jetzt Premium Mitglied ab einer Spende von 5€ und erhalte sofortigen Zugriff auf den Downloadbereich!

    !!!Alle Anliegen bezüglich Uploads werden nur mit direktem Threadlink zum Angebot bearbeitet!!!

    Re-Uploadanfragen nur per PN - Ihr könnt mir auch Listen schicken

    Re-Uploads erfolgen meist innerhalb 24h, kann aber auch bis zu 7 Tage dauern

    [Links sind nur für registrierte und aktivierte Nutzer sichtbar. Klicke hier um dich zu registrieren.] | [Links sind nur für registrierte und aktivierte Nutzer sichtbar. Klicke hier um dich zu registrieren.] | >[Links sind nur für registrierte und aktivierte Nutzer sichtbar. Klicke hier um dich zu registrieren.]<
    [Links sind nur für registrierte und aktivierte Nutzer sichtbar. Klicke hier um dich zu registrieren.]

  2. 39 Benutzer sagen Danke:

    Ace360 (26. July 2015),Artheanos (3. August 2015),assa (4. March 2016),Audifreak91 (28. August 2015),BANDIMO (26. September 2015),BlackDragon333 (29. August 2015),Bloodywaffe (14. February 2016),Ch1quita (7. August 2015),CoNfu5eD (26. July 2015),Cooky1988 (16. September 2015),DasNya (2. August 2015),Drachengott (24. July 2015),Drezzo (24. July 2015),Dylan (17. August 2015),Filbo11 (24. July 2015),GammaWar (2. November 2015),Herion (23. August 2015),Itamikun (13. January 2016),KainIV (6. August 2015),Kradus (27. July 2015),Kuddel (9. January 2016),Kurzey (23. August 2015),lowb0b (13. September 2015),mccharly (25. July 2015),Meistermagier (1. August 2015),midnighter (25. July 2015),Moody (9. August 2015),Pure (11. July 2016),Ronae (25. July 2015),sangheilie (6. September 2015),Sansento (7. September 2015),sebmori (20. August 2015),Shadowa (24. July 2015),sonic1992j (18. August 2015),SONNYxq (17. April 2016),tigerhai (26. July 2015),Vice (26. July 2015),Widerlicherketzer_inactive (9. August 2015),YamiXGhost (16. September 2015)

Lesezeichen

Berechtigungen

  • Neue Themen erstellen: Nein
  • Themen beantworten: Nein
  • Anhänge hochladen: Nein
  • Beiträge bearbeiten: Nein
  •  

1 2 3 4 5 6 7 8 9 10 11 12 13 14 15 16 17 18 19 20 21 22 23 24 25 26 27 28 29 30 31 32 33 34 35 36 37 38 39 40 41 42 43 44 45 46 47 48 49 50 51 52 53 54 55 56 57 58 59 60 61 62 63 64 65 66 67 68 69 70 71 72 73 74 75 76 77 78 79 80 81 82 83 84 85 86 87 88 89 90 91 92 93 94 95 96 97 98 99 100 101 102 103 104 105 106 107 108 109 110 111 112 113 114 115 116 117 118 119 120 121 122 123 124 125 126 127 128 129 130 131 132 133 134 135 136 137 138 139 140 141 142 143 144 145 146 147 148 149 150 151 152 153 154 155 156 157 158