Ergebnis 1 bis 1 von 1

Thema: Magi: Sinbad no Bouken [Jap-Dub][Ger-Sub][480p][DVDRip] - LS

Dieser Thread wurde noch nicht bewertet. Bewerte ihn doch, wenn er dir gefällt!
  1. #1
    Kami-sama Avatar von galudo
    Registriert seit
    Mar 2015
    Beiträge
    1.369
    Punkte
    25.903
    Errungenschaften:
    TomodachisTagger ProfiHyperaktivSenpaiGang Leader

    Magi: Sinbad no Bouken [Jap-Dub][Ger-Sub][480p][DVDRip] - LS

    Magi: Sinbad no Bouken
    マギ シンドバッドの冒険
    Magi: Adventure of Sinbad



    Kurzbeschreibung
    Sinbad no Bouken erzählt die Geschichte von Sinbads Abenteuern in den verschiedenen Dungeons.
    Format: MP4
    Sprache: Japanisch
    Untertitel: Deutsch
    Genre: Abenteuer, Action, Fantasy, Magie, Shounen
    Größe: ~ 220 MB pro Folge | Gesamtgröße: 1,12 GB
    Dauer: ~ 24 Minuten
    Jahr: 2014-2015
    Video: 480p
    Source: DVD
    Subgroup / Releasegroup: Lunatic-Studio

    Hoster: Share-Online | Uploaded
    Passwort: siehe unten


    Datei-Info
    Spoiler
    Code:
    General
    Complete name                  : [L-S] Sinbad no Bouken OVA 01 (848x480 h264 AAC) [9DB90D7A].mp4
    Format                         : MPEG-4
    Format profile                 : Base Media
    Codec ID                       : isom
    File size                      : 183 MiB
    Duration                       : 23mn 29s
    Overall bit rate mode          : Variable
    Overall bit rate               : 1 088 Kbps
    Encoded date                   : UTC 2016-03-15 03:45:44
    Tagged date                    : UTC 2016-03-15 03:45:44
    
    Video
    ID                             : 1
    Format                         : AVC
    Format/Info                    : Advanced Video Codec
    Format profile                 : [email protected]
    Format settings, CABAC         : Yes
    Format settings, ReFrames      : 6 frames
    Codec ID                       : avc1
    Codec ID/Info                  : Advanced Video Coding
    Duration                       : 23mn 29s
    Bit rate                       : 880 Kbps
    Maximum bit rate               : 5 968 Kbps
    Width                          : 848 pixels
    Height                         : 480 pixels
    Display aspect ratio           : 16:9
    Frame rate mode                : Constant
    Frame rate                     : 23.976 fps
    Color space                    : YUV
    Chroma subsampling             : 4:2:0
    Bit depth                      : 8 bits
    Scan type                      : Progressive
    Bits/(Pixel*Frame)             : 0.090
    Stream size                    : 148 MiB (81%)
    Writing library                : x264 core 142 r2431+42 c69a006 tMod [[email protected] X86_64]
    Encoding settings              : cabac=1 / ref=6 / deblock=1:0:0 / analyse=0x3:0x133 / me=hex / subme=7 / psy=1 / fade_compensate=0.00 / psy_rd=1.00:0.00 / mixed_ref=1 / me_range=16 / chroma_me=1 / trellis=1 / 8x8dct=1 / cqm=0 / deadzone=21,11 / fast_pskip=1 / chroma_qp_offset=-2 / threads=12 / lookahead_threads=2 / sliced_threads=0 / nr=0 / decimate=0 / interlaced=0 / bluray_compat=0 / constrained_intra=0 / fgo=0 / bframes=4 / b_pyramid=2 / b_adapt=1 / b_bias=0 / direct=3 / weightb=1 / open_gop=0 / weightp=2 / keyint=250 / keyint_min=23 / scenecut=40 / intra_refresh=0 / rc_lookahead=40 / rc=crf / mbtree=1 / crf=18.0000 / qcomp=0.60 / qpmin=0:0:0 / qpmax=69:69:69 / qpstep=4 / vbv_maxrate=2560 / vbv_bufsize=5120 / crf_max=0.0 / nal_hrd=none / filler=0 / ip_ratio=1.40 / aq=4:0.80 / aq-sensitivity=10.00 / aq-factor=1.00:1.00:1.00 / aq2=0 / aq3=0
    Encoded date                   : UTC 2016-03-14 17:46:01
    Tagged date                    : UTC 2016-03-15 03:46:26
    Color range                    : Limited
    Color primaries                : BT.709
    Transfer characteristics       : BT.709
    Matrix coefficients            : BT.709
    
    Audio
    ID                             : 2
    Format                         : AAC
    Format/Info                    : Advanced Audio Codec
    Format profile                 : LC
    Codec ID                       : 40
    Duration                       : 23mn 29s
    Bit rate mode                  : Variable
    Bit rate                       : 204 Kbps
    Maximum bit rate               : 261 Kbps
    Channel(s)                     : 2 channels
    Channel positions              : Front: L R
    Sampling rate                  : 48.0 KHz
    Compression mode               : Lossy
    Stream size                    : 34.3 MiB (19%)
    Encoded date                   : UTC 2016-03-15 03:45:53
    Tagged date                    : UTC 2016-03-15 03:46:26


    OVA 05 / 05 online
    OVAs einzeln ladbar



    || Download & Passwort ||


    Geschützter Bereich - Bedanke dich beim Poster, um den Bereich sehen zu können
    Hier erfährst Du wie Du Dich bedanken kannst oder werde jetzt Premium Mitglied ab einer Spende von 5€ und erhalte sofortigen Zugriff auf den Downloadbereich!
    Geändert von galudo (12. October 2016 um 18:38 Uhr)
    SUPPORT UND REUP ANFRAGEN NUR >> [Links sind nur für registrierte und aktivierte Nutzer sichtbar. Klicke hier um dich zu registrieren.] <<
    Bitte IMMER den Thread-Link mitschicken.

  2. 6 Benutzer sagen Danke:

    chewbacka (20. March 2016),Hisamaki (4. April 2016),KaneTheMagic (25. May 2016),Over (10. April 2016),SONNYxq (17. March 2016),Stein (10. September 2016)

Stichworte

Lesezeichen

Berechtigungen

  • Neue Themen erstellen: Nein
  • Themen beantworten: Nein
  • Anhänge hochladen: Nein
  • Beiträge bearbeiten: Nein
  •  

1 2 3 4 5 6 7 8 9 10 11 12 13 14 15 16 17 18 19 20 21 22 23 24 25 26 27 28 29 30 31 32 33 34 35 36 37 38 39 40 41 42 43 44 45 46 47 48 49 50 51 52 53 54 55 56 57 58 59 60 61 62 63 64 65 66 67 68 69 70 71 72 73 74 75 76 77 78 79 80 81 82 83 84 85 86 87 88 89 90 91 92 93 94 95 96 97 98 99 100 101 102 103 104 105 106 107 108 109 110 111 112 113 114 115 116 117 118 119 120 121 122 123 124 125 126 127 128 129 130 131 132 133 134 135 136 137 138 139 140 141 142 143 144 145 146 147 148 149 150 151 152 153 154 155 156 157 158