Ergebnis 1 bis 6 von 6

Thema: Mahou Shoujo Lyrical Nanoha ViVid [Jap-Dub][Ger-Sub][720p][HDTV]

Dieser Thread wurde noch nicht bewertet. Bewerte ihn doch, wenn er dir gefällt!
  1. #1
    Uploader Avatar von Filbo11
    Registriert seit
    Jan 2015
    Beiträge
    931
    Punkte
    17.281
    Errungenschaften:
    TomodachisErste Gruppe1 Jahr registriertCreated Album picturesTagger First Class

    Mahou Shoujo Lyrical Nanoha ViVid [Jap-Dub][Ger-Sub][720p][HDTV]

    Mahou Shoujo Lyrical Nanoha ViVid
    魔法少女リリカルなのはViVid
    Magical Girl Lyrical Nanoha ViVid




    Handlung

    Diesmal handelt die Geschichte von Vivio Takamachi, die Adoptivtochter von Nanoha Takamachi, deren Patentante Fate T. Harlaown ist. Vivio geht in die vierte Klasse der Magier-Grundschule St. Hilde Akademie. Nanoha hat ihr ein Device geschenkt, womit sie sich in eine Erwachsene verwandeln kann. Doch sie wird das nächste Ziel einer sehr gefährlichen Kämpferin, Heidi E.S. Ingvalt, benannt nach einem antiken belkanischen Herrscher.


    Format: mp4
    Dauer: ca. 25 min
    Größe: ca. 400 MB
    Sprache: Japanisch
    Untertitel: Deutsch
    Group: [Morai-Subs]
    Hoster: Uploaded.net & Share-Online.biz
    kein PW


    Screenshots & MediaInfo

    Spoiler
    [Links sind nur für registrierte und aktivierte Nutzer sichtbar. Klicke hier um dich zu registrieren.]

    Code:
    General
    Complete name               : [Morai-Subs] Mahou Shoujo Lyrical Nanoha ViVid - 01 [2FC07BAE].mp4
    Format                      : MPEG-4
    Format profile              : Base Media
    Codec ID                    : isom
    File size                   : 430 MiB
    Duration                    : 25mn 0s
    Overall bit rate mode       : Variable
    Overall bit rate            : 2 405 Kbps
    Encoded date                : UTC 2015-04-07 21:12:55
    Tagged date                 : UTC 2015-04-07 21:12:55
    
    Video
    ID                          : 1
    Format                      : AVC
    Format/Info                 : Advanced Video Codec
    Format profile              : [email protected]
    Format settings, CABAC      : Yes
    Format settings, ReFrames   : 9 frames
    Codec ID                    : avc1
    Codec ID/Info               : Advanced Video Coding
    Duration                    : 24mn 59s
    Bit rate                    : 2 190 Kbps
    Maximum bit rate            : 10.7 Mbps
    Width                       : 1 280 pixels
    Height                      : 720 pixels
    Display aspect ratio        : 16:9
    Frame rate mode             : Constant
    Frame rate                  : 23.976 fps
    Color space                 : YUV
    Chroma subsampling          : 4:2:0
    Bit depth                   : 8 bits
    Scan type                   : Progressive
    Bits/(Pixel*Frame)          : 0.099
    Stream size                 : 392 MiB (91%)
    Title                       : Video
    Writing library             : x264 core 146 r2538 121396c
    Encoding settings           : cabac=1 / ref=9 / deblock=1:1:1 / analyse=0x3:0x133 / me=umh / subme=10 / psy=1 / psy_rd=0.60:0.15 / mixed_ref=1 / me_range=24 / chroma_me=1 / trellis=2 / 8x8dct=1 / cqm=0 / deadzone=21,11 / fast_pskip=1 / chroma_qp_offset=-3 / threads=12 / lookahead_threads=2 / sliced_threads=0 / nr=0 / decimate=1 / interlaced=0 / bluray_compat=0 / constrained_intra=0 / bframes=9 / b_pyramid=2 / b_adapt=2 / b_bias=0 / direct=3 / weightb=1 / open_gop=0 / weightp=2 / keyint=250 / keyint_min=23 / scenecut=40 / intra_refresh=0 / rc_lookahead=60 / rc=crf / mbtree=0 / crf=18.0 / qcomp=0.60 / qpmin=0 / qpmax=69 / qpstep=4 / vbv_maxrate=25000 / vbv_bufsize=25000 / crf_max=0.0 / nal_hrd=none / filler=0 / ip_ratio=1.40 / pb_ratio=1.30 / aq=1:0.80
    Encoded date                : UTC 2015-04-07 21:12:55
    Tagged date                 : UTC 2015-04-07 21:12:59
    
    Audio
    ID                          : 2
    Format                      : AAC
    Format/Info                 : Advanced Audio Codec
    Format profile              : LC
    Codec ID                    : 40
    Duration                    : 25mn 0s
    Bit rate mode               : Variable
    Bit rate                    : 211 Kbps
    Maximum bit rate            : 252 Kbps
    Channel(s)                  : 2 channels
    Channel positions           : Front: L R
    Sampling rate               : 48.0 KHz
    Compression mode            : Lossy
    Stream size                 : 37.7 MiB (9%)
    Title                       : Japanese
    Language                    : Japanese
    Encoded date                : UTC 2015-04-07 20:36:11
    Tagged date                 : UTC 2015-04-07 21:12:59


    Alle Mirrors untereinander kompatibel
    Folgen einzeln ladbar
    Folge 12/12 online


    Download
    Geschützter Bereich - Bedanke dich beim Poster, um den Bereich sehen zu können
    Hier erfährst Du wie Du Dich bedanken kannst oder werde jetzt Premium Mitglied ab einer Spende von 5€ und erhalte sofortigen Zugriff auf den Downloadbereich!

    Geändert von Filbo11 (12. April 2016 um 10:15 Uhr) Grund: folge 7, 8, 9 ,10, 11 & 12 hinzugefügt

    [Links sind nur für registrierte und aktivierte Nutzer sichtbar. Klicke hier um dich zu registrieren.]

    Ich wäre allen sehr dankbar, die mir gravierende Fehler in meinen Releases per PN melden

  2. 28 Benutzer sagen Danke:

    Akatsuki (16. April 2015),Akio (25. October 2015),Angelous (10. May 2015),Bloodywaffe (16. February 2016),chopper23 (21. April 2015),DarkChaos (27. July 2015),dave_christoph (25. January 2016),Drachengott (9. April 2015),dreambird1973 (27. July 2015),Dylan (10. May 2015),enfii (13. April 2015),Kartox (22. April 2015),Kradus (8. January 2016),logitech2559 (15. December 2015),Melijal (1. July 2015),midnighter (10. April 2015),NobodyX1 (15. August 2015),Noire16 (2. October 2015),prinzvegeta (28. July 2015),Riven (8. March 2016),Ronae (28. July 2015),Sephi66 (22. April 2015),SnowCat (10. April 2015),SONNYxq (15. April 2015),Tekk (15. April 2015),TheYoAsakura (22. April 2015),Valetinese (21. April 2015),Wor Mac (5. February 2016)

  3. #2
    Uploader Avatar von Filbo11
    Registriert seit
    Jan 2015
    Beiträge
    931
    Punkte
    17.281
    Errungenschaften:
    TomodachisErste Gruppe1 Jahr registriertCreated Album picturesTagger First Class

    AW: Mahou Shoujo Lyrical Nanoha ViVid [Jap-Dub][Ger-Sub][720p][HDTV]

    folge 2 online

    [Links sind nur für registrierte und aktivierte Nutzer sichtbar. Klicke hier um dich zu registrieren.]

    Ich wäre allen sehr dankbar, die mir gravierende Fehler in meinen Releases per PN melden

  4. 1 Benutzer sagt Danke:

    SnowCat (18. April 2015)

  5. #3
    Uploader Avatar von Filbo11
    Registriert seit
    Jan 2015
    Beiträge
    931
    Punkte
    17.281
    Errungenschaften:
    TomodachisErste Gruppe1 Jahr registriertCreated Album picturesTagger First Class

    AW: Mahou Shoujo Lyrical Nanoha ViVid [Jap-Dub][Ger-Sub][720p][HDTV]

    folge 3 online

    [Links sind nur für registrierte und aktivierte Nutzer sichtbar. Klicke hier um dich zu registrieren.]

    Ich wäre allen sehr dankbar, die mir gravierende Fehler in meinen Releases per PN melden

  6. #4
    Uploader Avatar von Filbo11
    Registriert seit
    Jan 2015
    Beiträge
    931
    Punkte
    17.281
    Errungenschaften:
    TomodachisErste Gruppe1 Jahr registriertCreated Album picturesTagger First Class

    AW: Mahou Shoujo Lyrical Nanoha ViVid [Jap-Dub][Ger-Sub][720p][HDTV]

    folge 4 & 5 online
    Geändert von Filbo11 (10. May 2015 um 02:53 Uhr)

    [Links sind nur für registrierte und aktivierte Nutzer sichtbar. Klicke hier um dich zu registrieren.]

    Ich wäre allen sehr dankbar, die mir gravierende Fehler in meinen Releases per PN melden

  7. #5
    Uploader Avatar von Filbo11
    Registriert seit
    Jan 2015
    Beiträge
    931
    Punkte
    17.281
    Errungenschaften:
    TomodachisErste Gruppe1 Jahr registriertCreated Album picturesTagger First Class

    AW: Mahou Shoujo Lyrical Nanoha ViVid [Jap-Dub][Ger-Sub][720p][HDTV]

    folge 6 online

    [Links sind nur für registrierte und aktivierte Nutzer sichtbar. Klicke hier um dich zu registrieren.]

    Ich wäre allen sehr dankbar, die mir gravierende Fehler in meinen Releases per PN melden

  8. #6
    Uploader Avatar von Filbo11
    Registriert seit
    Jan 2015
    Beiträge
    931
    Punkte
    17.281
    Errungenschaften:
    TomodachisErste Gruppe1 Jahr registriertCreated Album picturesTagger First Class

    AW: Mahou Shoujo Lyrical Nanoha ViVid [Jap-Dub][Ger-Sub][720p][HDTV]

    folge 7, 8, 9 ,10, 11 & 12 hinzugefügt somit komplett

    [Links sind nur für registrierte und aktivierte Nutzer sichtbar. Klicke hier um dich zu registrieren.]

    Ich wäre allen sehr dankbar, die mir gravierende Fehler in meinen Releases per PN melden

Stichworte

Lesezeichen

Berechtigungen

  • Neue Themen erstellen: Nein
  • Themen beantworten: Nein
  • Anhänge hochladen: Nein
  • Beiträge bearbeiten: Nein
  •  

1 2 3 4 5 6 7 8 9 10 11 12 13 14 15 16 17 18 19 20 21 22 23 24 25 26 27 28 29 30 31 32 33 34 35 36 37 38 39 40 41 42 43 44 45 46 47 48 49 50 51 52 53 54 55 56 57 58 59 60 61 62 63 64 65 66 67 68 69 70 71 72 73 74 75 76 77 78 79 80 81 82 83 84 85 86 87 88 89 90 91 92 93 94 95 96 97 98 99 100 101 102 103 104 105 106 107 108 109 110 111 112 113 114 115 116 117 118 119 120 121 122 123 124 125 126 127 128 129 130 131 132 133 134 135 136 137 138 139 140 141 142 143 144 145 146 147 148 149 150 151 152 153 154 155 156 157 158