Ergebnis 1 bis 2 von 2

Thema: Mahou Tsukai ni Taisetsu na Koto: Natsu no Sora [Jap-Dub][Ger-Sub][720p][HDTV]

Dieser Thread wurde noch nicht bewertet. Bewerte ihn doch, wenn er dir gefällt!
  1. #1
    United we Stand Avatar von 00Ryuji00
    Registriert seit
    Oct 2012
    Beiträge
    3.896
    Punkte
    99.716
    Errungenschaften:
    TomodachisGang LeaderHikikomoriTagger Amateur50000 Erfahrungspunkte

    Mahou Tsukai ni Taisetsu na Koto: Natsu no Sora [Jap-Dub][Ger-Sub][720p][HDTV]

    Mahou Tsukai ni Taisetsu na Koto: Natsu no Sora
    魔法遣いに大切なこと ~夏のソラ~
    Someday's Dreamers II: Sora
    Things That Are Important to a Mage: Summer Sky
    Someday's Dreamers: Summer Skies






    Kurzbeschreibung:
    Sora, ein Mädchen vom Land, das Magie benutzen kann, zieht nach Tokio, um dort an einem Fortbildungsprogramm für junge Magier teilzunehmen. Ob eine Person Magie benutzen kann, hängt von einer genetischen Veranlagung ab. Sora hat diese Begabung von ihrem Vater. Mit sechzehn Jahren darf sie nun endlich lernen Magie gezielt einzusetzen. Erst wenn sie das Training in Tokio absolviert hat, darf sie sich als Magier bezeichnen. Zunächst fällt es Sora sehr schwer sich auf das hektische Stadtleben einzustellen, doch im Unterricht findet sie Freunde, mit denen sie ihren neuen Alltag bestreiten kann...


    Sprache: Japanisch
    Untertitel: Deutsch
    Episodenanzahl: 12/12
    Format: .mkv
    Auflösung: 720p (16:9)
    Codec: x264
    Gruppe: aO & kA-Oz
    Hoster: Share-Online ; Uploaded


    Datei Info:
    Spoiler

    Code:
    
    
    Format                                   : Matroska
    Format version                           : Version 1
    File size                                : 233 MiB
    Duration                                 : 23mn 29s
    Overall bit rate mode                    : Variable
    Overall bit rate                         : 1 385 Kbps
    Encoded date                             : UTC 2008-12-24 09:31:02
    Writing application                      : mkvmerge v2.4.1 ('Use Me') built on Dec  5 2008 18:30:05
    Writing library                          : libebml v0.7.7 + libmatroska v0.8.1
    
    Video
    ID                                       : 1
    Format                                   : AVC
    Format/Info                              : Advanced Video Codec
    Format profile                           : [email protected]
    Format settings, CABAC                   : Yes
    Format settings, ReFrames                : 8 frames
    Codec ID                                 : V_MPEG4/ISO/AVC
    Duration                                 : 23mn 29s
    Bit rate                                 : 1 277 Kbps
    Width                                    : 1 280 pixels
    Height                                   : 720 pixels
    Display aspect ratio                     : 16:9
    Frame rate mode                          : Constant
    Frame rate                               : 23.976 fps
    Color space                              : YUV
    Chroma subsampling                       : 4:2:0
    Bit depth                                : 8 bits
    Scan type                                : Progressive
    Bits/(Pixel*Frame)                       : 0.058
    Stream size                              : 209 MiB (90%)
    Writing library                          : x264 core 65 r1057 5f8a149
    Encoding settings                        : cabac=1 / ref=8 / deblock=1:-3:-3 / analyse=0x3:0x133 / me=esa / subme=9 / psy_rd=0.8:0.0 / mixed_ref=1 / me_range=24 / chroma_me=1 / trellis=2 / 8x8dct=1 / cqm=0 / deadzone=21,11 / chroma_qp_offset=-2 / threads=6 / nr=0 / decimate=0 / mbaff=0 / bframes=4 / b_pyramid=1 / b_adapt=2 / b_bias=0 / direct=3 / wpredb=1 / keyint=240 / keyint_min=25 / scenecut=40(pre) / rc=2pass / bitrate=1277 / ratetol=1.0 / qcomp=0.60 / qpmin=10 / qpmax=51 / qpstep=4 / cplxblur=20.0 / qblur=0.5 / ip_ratio=1.40 / pb_ratio=1.30 / aq=1:0.70
    Language                                 : German
    Default                                  : Yes
    Forced                                   : No
    
    Audio
    ID                                       : 2
    Format                                   : Vorbis
    Format settings, Floor                   : 1
    Codec ID                                 : A_VORBIS
    Duration                                 : 23mn 29s
    Bit rate mode                            : Variable
    Bit rate                                 : 112 Kbps
    Channel count                            : 2 channels
    Sampling rate                            : 48.0 KHz
    Compression mode                         : Lossy
    Stream size                              : 18.8 MiB (8%)
    Title                                    : 2ch OGG Vorbis
    Writing library                          : aoTuV Beta 5 (UTC 2006-10-24)
    Language                                 : Japanese
    Default                                  : Yes
    Forced                                   : No
    Writing application                      : Made with BeSweet v1.5b31
    Encoded_Application/Url                  : http://DSPguru.doom9.org
    
    Menu
    00:00:00.000                             : :Prologue
    00:02:01.955                             : :Opening
    00:03:43.974                             : :Episode 01 "Von Biei"
    00:21:36.962                             : :Ending
    00:23:04.884                             : :Preview
    
    






    Geschützter Bereich - Bedanke dich beim Poster, um den Bereich sehen zu können
    Hier erfährst Du wie Du Dich bedanken kannst oder werde jetzt Premium Mitglied ab einer Spende von 5€ und erhalte sofortigen Zugriff auf den Downloadbereich!

    !!!Alle Anliegen bezüglich Uploads werden nur mit direktem Threadlink zum Angebot bearbeitet!!!

    Re-Uploadanfragen nur per PN - Ihr könnt mir auch Listen schicken

    Re-Uploads erfolgen meist innerhalb 24h, kann aber auch bis zu 7 Tage dauern

    [Links sind nur für registrierte und aktivierte Nutzer sichtbar. Klicke hier um dich zu registrieren.] | [Links sind nur für registrierte und aktivierte Nutzer sichtbar. Klicke hier um dich zu registrieren.] | >[Links sind nur für registrierte und aktivierte Nutzer sichtbar. Klicke hier um dich zu registrieren.]<
    [Links sind nur für registrierte und aktivierte Nutzer sichtbar. Klicke hier um dich zu registrieren.]

  2. 22 Benutzer sagen Danke:

    Aikanary (22. March 2016),Akio (18. August 2015),Androkai (8. August 2015),eraz (10. August 2015),Extraneis (25. November 2015),Facebreaker (21. March 2016),Griever (29. October 2016),hanismustismann (3. October 2015),Hououin Kyouma (26. September 2015),krasserGaul (8. August 2015),Ley0304 (9. August 2015),LordBacon1 (21. March 2016),manuel4193 (24. April 2016),midnighter (12. August 2015),Mosa (15. December 2015),prinzvegeta (10. August 2015),realmadridcf (20. November 2016),Ronae (21. March 2016),Sansento (25. March 2016),SONNYxq (8. August 2015),Tekk (21. March 2016),Yuu225 (11. April 2016)

  3. #2
    United we Stand Avatar von 00Ryuji00
    Registriert seit
    Oct 2012
    Beiträge
    3.896
    Punkte
    99.716
    Errungenschaften:
    TomodachisGang LeaderHikikomoriTagger Amateur50000 Erfahrungspunkte

    AW: Mahou Tsukai ni Taisetsu na Koto: Natsu no Sora [Jap-Dub][Ger-Sub][720p][HDTV]

    Update: Dateien auf Wunsch wieder online.
    !!!Alle Anliegen bezüglich Uploads werden nur mit direktem Threadlink zum Angebot bearbeitet!!!

    Re-Uploadanfragen nur per PN - Ihr könnt mir auch Listen schicken

    Re-Uploads erfolgen meist innerhalb 24h, kann aber auch bis zu 7 Tage dauern

    [Links sind nur für registrierte und aktivierte Nutzer sichtbar. Klicke hier um dich zu registrieren.] | [Links sind nur für registrierte und aktivierte Nutzer sichtbar. Klicke hier um dich zu registrieren.] | >[Links sind nur für registrierte und aktivierte Nutzer sichtbar. Klicke hier um dich zu registrieren.]<
    [Links sind nur für registrierte und aktivierte Nutzer sichtbar. Klicke hier um dich zu registrieren.]

Lesezeichen

Berechtigungen

  • Neue Themen erstellen: Nein
  • Themen beantworten: Nein
  • Anhänge hochladen: Nein
  • Beiträge bearbeiten: Nein
  •  

1 2 3 4 5 6 7 8 9 10 11 12 13 14 15 16 17 18 19 20 21 22 23 24 25 26 27 28 29 30 31 32 33 34 35 36 37 38 39 40 41 42 43 44 45 46 47 48 49 50 51 52 53 54 55 56 57 58 59 60 61 62 63 64 65 66 67 68 69 70 71 72 73 74 75 76 77 78 79 80 81 82 83 84 85 86 87 88 89 90 91 92 93 94 95 96 97 98 99 100 101 102 103 104 105 106 107 108 109 110 111 112 113 114 115 116 117 118 119 120 121 122 123 124 125 126 127 128 129 130 131 132 133 134 135 136 137 138 139 140 141 142 143 144 145 146 147 148 149 150 151 152 153 154 155 156 157 158